.
Авторизация | Регистрация
Хочешь лучшие торренты? Добавь свой email!
Добавить
» » План побега / Escape Plan (2013) BDRip 1080p скачать торрент бесплатно




    План побега / Escape Plan (2013) BDRip 1080p скачать торрент бесплатно

    Опубликовал: Админ | Дата: 27-02-2015, 11:10 | Просмотров: 261



    Детально о кино
    Русское название: План побега
    Русское название в мировом прокате: Escape Plan
    Создали в: 2013
    Категория жанра: Боевик, триллер, детектив
    Главный режиссер: Микаэль Хофстрём
    Актеры: Сильвестр Сталлоне, Арнольд Шварценеггер, Джеймс Кэвизел, Фифти Сент, Винни Джонс, Винсент Д`Онофрио, Эми Райан, Сэм Нилл, Каитриона Бэлфи, Фаран Таир

    Сюжет фильма:
    Один из самых выдающихся мировых специалистов по системам безопасности соглашается на последнюю рисковую операцию: сбежать из суперсекретной высокотехнологичной тюрьмы, которую называют Гробницей. Преданный Рэй Бреслин вынужден прибегнуть к помощи напарника — заключенного Эмиля Ротмайера, чтобы разработать отчаянный и практически неосуществимый план побега из самой защищенной тюрьмы в мире!




    Снималось в: США
    Киностудия: Atmosphere Entertainment MM LLC, Boies/Schiller Film Group, Emmett/Furla Films, Envision Entertainment Corporation, Spiderwood Productions
    Время просмотра: 01:55:00
    Перевод текста: Дублированный Чистый звук, профессиональный многоголосый

    Файл
    Кодек для видео: MPEG-4 AVC
    Качество фильма: BDRip (1080p)
    Информация о видео: 10.3 Мбит/с, 1920x800
    Информация о звуке: Русский (AC3, 2 ch, 192 Кбит/с), (AC3, 6 ch, 384 Кбит/с), английский (DTS, 6 ch, 1510 Кбит/с), (AAC, 2 ch, 160 Кбит/с)

    Семпл

    MI
    Общее
    Уникальный идентификатор : 193112217898598643816447255222652969524 (0x91480F7054E494BBA437C0A13ECB2234)
    Полное имя : D:Escape.Plan.2013.BDRip.1080p.mkv
    Формат : Matroska
    Версия формата : Version 2
    Размер файла : 9,96 Гбайт
    Продолжительность : 1 ч. 55 м.
    Общий поток : 12,3 Мбит/сек
    Дата кодирования : UTC 2014-01-23 11:28:33
    Программа кодирования : mkvmerge v6.7.0 (;Back to the Ground;) 32bit built on Jan 8 2014 15:03:17
    Библиотека кодирования : libebml v1.3.0 libmatroska v1.4.1

    Видео
    Идентификатор : 1
    Формат : AVC
    Формат/Информация : Advanced Video Codec
    Профиль формата : High@L4.1
    Параметр CABAC формата : Да
    Параметр ReFrames формата : 5 кадров
    Идентификатор кодека : V_MPEG4/ISO/AVC
    Продолжительность : 1 ч. 55 м.
    Битрейт : 10,3 Мбит/сек
    Ширина : 1920 пикселей
    Высота : 800 пикселей
    Соотношение сторон : 2,40:1
    Режим частоты кадров : Постоянный
    Частота кадров : 23,976 кадра/сек
    Цветовое пространство : YUV
    Субдискретизация насыщенности : 4:2:0
    Битовая глубина : 8 бит
    Тип развёртки : Прогрессивная
    Бит/(Пиксели*Кадры) : 0.279
    Размер потока : 8,08 Гбайт (81%)
    Заголовок : Escape.Plan.2013
    Библиотека кодирования : x264 core 138 r2356 a1d3d17
    Настройки программы : cabac=1 / ref=5 / deblock=1:-3:-3 / analyse=0x3:0x113 / me=umh / subme=10 / psy=1 / psy_rd=1.00:0.05 / mixed_ref=1 / me_range=32 / chroma_me=1 / trellis=2 / 8x8dct=1 / cqm=0 / deadzone=21,11 / fast_pskip=0 / chroma_qp_offset=-2 / threads=18 / lookahead_threads=1 / sliced_threads=0 / nr=0 / decimate=1 / interlaced=0 / bluray_compat=0 / constrained_intra=0 / bframes=4 / b_pyramid=2 / b_adapt=2 / b_bias=0 / direct=3 / weightb=1 / open_gop=0 / weightp=2 / keyint=250 / keyint_min=23 / scenecut=40 / intra_refresh=0 / rc=2pass / mbtree=0 / bitrate=10260 / ratetol=1.0 / qcomp=0.70 / qpmin=0 / qpmax=69 / qpstep=4 / cplxblur=20.0 / qblur=0.5 / ip_ratio=1.40 / pb_ratio=1.30 / aq=2:1.00
    Язык : English
    Default : Да
    Forced : Нет

    Аудио #1
    Идентификатор : 2
    Формат : AC-3
    Формат/Информация : Audio Coding 3
    Расширение режима : CM (complete main)
    Параметр Endianness формата : Big
    Идентификатор кодека : A_AC3
    Продолжительность : 1 ч. 55 м.
    Вид битрейта : Постоянный
    Битрейт : 384 Кбит/сек
    Каналы : 6 каналов
    Расположение каналов : Front: L C R, Side: L R, LFE
    Частота : 48,0 КГц
    Битовая глубина : 16 бит
    Метод сжатия : С потерями
    Размер потока : 317 Мбайт (3%)
    Язык : Russian
    Default : Да
    Forced : Да

    Аудио #2
    Идентификатор : 3
    Формат : AC-3
    Формат/Информация : Audio Coding 3
    Расширение режима : CM (complete main)
    Параметр Endianness формата : Big
    Идентификатор кодека : A_AC3
    Продолжительность : 1 ч. 55 м.
    Вид битрейта : Постоянный
    Битрейт : 192 Кбит/сек
    Каналы : 2 канала
    Расположение каналов : Front: L R
    Частота : 48,0 КГц
    Битовая глубина : 16 бит
    Метод сжатия : С потерями
    Размер потока : 159 Мбайт (2%)
    Язык : Russian
    Default : Нет
    Forced : Нет

    Аудио #3
    Идентификатор : 4
    Формат : DTS
    Формат/Информация : Digital Theater Systems
    Режим : 16
    Параметр Endianness формата : Big
    Идентификатор кодека : A_DTS
    Продолжительность : 1 ч. 55 м.
    Вид битрейта : Постоянный
    Битрейт : 1509 Кбит/сек
    Каналы : 6 каналов
    Расположение каналов : Front: L C R, Side: L R, LFE
    Частота : 48,0 КГц
    Битовая глубина : 24 бит
    Метод сжатия : С потерями
    Размер потока : 1,22 Гбайт (12%)
    Заголовок : DTS-CORE 1536K ENG
    Язык : English
    Default : Нет
    Forced : Нет

    Скриншоты для ознакомления



    Размер скачиваемого торрента: 9.96 GB (10694286562 Bytes)

    План побега / Escape Plan (2013) BDRip 1080p торрент скачать бесплатно
    загрузка...
    Рейтинг →
     (голосов: 1, оценка 3/5, голосовать можно 1 раз )

    Другие торренты по теме:

  • План побега / Escape Plan (2013) HD 720p | L1 | Трейлер
  • План побега (2013)
  • План побега / Escape Plan (2013) CAMRip
  • OST - План побега / Escape Plan (2013) MP3
  • План побега / Escape Plan (2013) TS
  • План побега / Escape Plan (2013) WEBRip-AVC | Звук с TS
  • План побега / Escape Plan (2013) WEBRip | Звук с TS скачать через торрент бесплатно
  • План побега / Escape Plan (2013) HDTVRip | Звук с TS скачать через торрент бесплатно


    • Комментарии (0):

      Информация

      Информация

        Посетители, находящиеся в группе Гости, не могут оставлять комментарии в данной новости.

        ↓ Меню



        ↓ Опрос

        А Вы добавили сайт в закладки?
        Да
        Не


        Top 10 за месяц (Фильмы)