.
Авторизация | Регистрация
Хочешь лучшие торренты? Добавь свой email!
Добавить
» » Сейчас или никогда / Any Day Now (2012) BDRip 720p от CINEMANIA | P2 скачать торрент бесплатно




    Сейчас или никогда / Any Day Now (2012) BDRip 720p от CINEMANIA | P2 скачать торрент бесплатно

    Опубликовал: Админ | Дата: 27-02-2015, 11:10 | Просмотров: 270



    Детально о кино
    Русское название: Сейчас или никогда
    Русское название в мировом прокате: Any Day Now
    Создали в: 2012
    Категория жанра: драма
    Главный режиссер: Трэвис Файн
    Актеры: Алан Камминг, Гаррет Диллахант, Исаак Лейва, Фрэнсис Фишер, Грегг Генри, Джейми Энн Оллман, Крис Малки, Дон Франклин, Келли Уильямс, Алан Рачинс

    Сюжет фильма:
    Основанная на реальных событиях, произошедших в конце 1970-х гг., эта история повествует о гей-паре, принимающей на воспитание мальчика с Синдромом Дауна, от которого отказывается непутевая мать-наркоманка. И пока подросток впервые в своей жизни открывает для себя крепкие узы настоящей семьи, которой у него никогда не было, недовольные таким положение дел консервативные власти предпринимают решительный шаг, чтобы вырвать его из этого стабильного и спокойного окружения, которое он когда-либо знал. Теперь эта гомосексуальная пара должна начать бороться за право усыновить этого необыкновенного, с особыми потребностями ребенка, вступая в неравное и незабываемое сражение против системы, созданной против них.



    Снималось в: США
    Время просмотра: 01:38:03
    Тип перевода: Профессиональное (двухголосое) студия Elrom

    Файл
    Тип видео: MKV
    Качество фильма: BDRip 720p EbP
    Информация о видео: 6743 kb/s, 1280x536
    Информация о звуке: Russian: AC3, 192 kb/s (2 ch) / English: DTS, 1510 kb/s (6 ch)
    Субтитры: Russian natsster, laskeeva, English
    Дополнительно: Сохранены оригинальные чаптеры как на Blu-ray
    Размер скачиваемого торрента: 5.97 GB
    Скачать: Сэмпл

    Релиз группы:




    NFO
    Общее
    Any.Day.Now.2012.Blu.Ray.720p.CINEMANIA.mkv
    Формат : Matroska
    Версия формата : Version 4 / Version 2
    Размер файла : 5,97 Гбайт
    Продолжительность : 1 ч. 39 м.
    Общий поток : 8615 Кбит/сек
    Название фильма : Release Group CINEMANIA
    Дата кодирования : UTC 2014-01-23 14:35:39
    Программа кодирования : mkvmerge v6.7.0 (;Back to the Ground;) 64bit built on Jan 8 2014 15:10:52
    Библиотека кодирования : libebml v1.3.0 libmatroska v1.4.1

    Видео
    Идентификатор : 1
    Формат : AVC
    Формат/Информация : Advanced Video Codec
    Профиль формата : High@L4.1
    Параметр CABAC формата : Да
    Параметр ReFrames формата : 12 кадров
    Идентификатор кодека : V_MPEG4/ISO/AVC
    Продолжительность : 1 ч. 39 м.
    Битрейт : 6743 Кбит/сек
    Ширина : 1280 пикселей
    Высота : 536 пикселей
    Соотношение сторон : 2,40:1
    Режим частоты кадров : Постоянный
    Частота кадров : 23,976 кадра/сек
    Цветовое пространство : YUV
    Субдискретизация насыщенности : 4:2:0
    Битовая глубина : 8 бит
    Тип развёртки : Прогрессивная
    Бит/(Пиксели*Кадры) : 0.410
    Размер потока : 4,67 Гбайт (78%)
    Заголовок : Release Group CINEMANIA
    Язык : English
    Default : Да
    Forced : Нет

    Аудио #1
    Идентификатор : 2
    Формат : AC-3
    Формат/Информация : Audio Coding 3
    Расширение режима : CM (complete main)
    Параметр Endianness формата : Big
    Идентификатор кодека : A_AC3
    Продолжительность : 1 ч. 39 м.
    Вид битрейта : Постоянный
    Битрейт : 192 Кбит/сек
    Каналы : 2 канала
    Расположение каналов : Front: L R
    Частота : 48,0 КГц
    Битовая глубина : 16 бит
    Метод сжатия : С потерями
    Размер потока : 136 Мбайт (2%)
    Заголовок : Elrom
    Язык : Russian
    Default : Да
    Forced : Да

    Аудио #2
    Идентификатор : 3
    Формат : DTS
    Формат/Информация : Digital Theater Systems
    Режим : 16
    Параметр Endianness формата : Big
    Идентификатор кодека : A_DTS
    Продолжительность : 1 ч. 39 м.
    Вид битрейта : Постоянный
    Битрейт : 1509 Кбит/сек
    Каналы : 6 каналов
    Расположение каналов : Front: L C R, Side: L R, LFE
    Частота : 48,0 КГц
    Битовая глубина : 24 бит
    Метод сжатия : С потерями
    Размер потока : 1,05 Гбайт (18%)
    Язык : English
    Default : Нет
    Forced : Нет

    Текст #1
    Идентификатор : 4
    Формат : UTF-8
    Идентификатор кодека : S_TEXT/UTF8
    Идентификатор кодека/Информация : UTF-8 Plain Text
    Заголовок : natsster, laskeeva
    Язык : Russian
    Default : Нет
    Forced : Нет

    Текст #2
    Идентификатор : 5
    Формат : UTF-8
    Идентификатор кодека : S_TEXT/UTF8
    Идентификатор кодека/Информация : UTF-8 Plain Text
    Язык : English
    Default : Нет
    Forced : Нет

    Меню
    00:00:00.000 : en:00:00:00.000
    00:03:53.358 : en:00:03:53.358
    00:09:40.497 : en:00:09:40.497
    00:18:00.162 : en:00:18:00.162
    00:24:58.372 : en:00:24:58.372
    00:30:21.945 : en:00:30:21.945
    00:34:22.018 : en:00:34:22.018
    00:39:41.254 : en:00:39:41.254
    00:45:31.395 : en:00:45:31.395
    00:52:09.668 : en:00:52:09.668
    00:59:33.111 : en:00:59:33.111
    01:04:33.870 : en:01:04:33.870
    01:12:01.859 : en:01:12:01.859
    01:21:03.358 : en:01:21:03.358
    01:24:17.261 : en:01:24:17.261
    01:28:24.090 : en:01:28:24.090
    01:31:53.341 : en:01:31:53.341


    Залил: DGEKIGAN
    Размер скачиваемого торрента: 5.97 GB (6411140799 Bytes)

    Сейчас или никогда / Any Day Now (2012) BDRip 720p от CINEMANIA | P2 торрент скачать бесплатно
    загрузка...
    Рейтинг →
     (голосов: 1, оценка 3/5, голосовать можно 1 раз )

    Другие торренты по теме:

  • Сейчас или никогда / Any Day Now (2012) HDRip | P2
  • Сейчас или никогда / Now and again (1999-2000) TVRip | L2 скачать через торрент бесплатно


    • Комментарии (0):

      Информация

      Информация

        Посетители, находящиеся в группе Гости, не могут оставлять комментарии в данной новости.

        ↓ Меню



        ↓ Опрос

        А Вы добавили сайт в закладки?
        Да
        Не


        Top 10 за месяц (Фильмы)