.
Авторизация | Регистрация
Хочешь лучшие торренты? Добавь свой email!
Добавить
» » Восстание Кейна / The Caine Mutiny (1954) BDRip by msltel | P скачать через торрент бесплатно




    Восстание Кейна / The Caine Mutiny (1954) BDRip by msltel | P скачать через торрент бесплатно

    Опубликовал: Админ | Дата: 27-02-2015, 11:10 | Просмотров: 279



    Русское название: Восстание Кейна
    Русское название в мировом прокате: The Caine Mutiny
    Создали в: 1954
    Категория жанра: Военный, драма, мелодрама
    Снималось в: США, Columbia Pictures Corporation
    Главный режиссер: Эдвард Дмитрик
    Актеры: Хамфри Богарт, Хосе Феррер, Ван Джонсон, Фред МакМюррэй, Роберт Френсис, Мэй Винн, Том Талли, Э. Г. Маршалл, Артур Франц, Ли Марвин

    Сюжет фильма: Фрэнсис, Джонсон и МакМюррэй служат на одном эсминце в начале Второй мировой войны. Новый капитан сразу же железной рукой устанавливает свою власть и обнаруживает явный невроз. Когда он схватывается с Джонсоном, последнего отдают по трибунал, и Хосе Феррер должен его защищать...

    Качество фильма: BDRip
    Информация о видео: XviD, 1904 Кбит/с, 720x384
    Информация о звуке: Русский (AC3, 2 ch, 192 Кбит/с), английский (AC3, 6 ch, 448 Кбит/с)
    Размер скачиваемого торрента: 2.22 ГБ
    Время просмотра: 02:04:35
    Перевод текста: Профессиональный многоголосый
    Субтитры: Английские

    Исходник: порошков (Рутрекер)

    Сравнение с исходником



    Награды
    Оскар, 1955 год
    Номинации (7):
    Лучший фильм
    Лучшая мужская роль (Хамфри Богарт)
    Лучшая мужская роль второго плана (Том Талли)
    Лучший адаптированный сценарий
    Лучший звук
    Лучший монтаж
    Лучший саундтрек для драматических/комедийных картин

    Британская академия, 1955 год
    Номинации (2):
    Лучший фильм
    Лучший иностранный актер (Хосе Феррер)
    MediaInfo
    Общее
    Полное имя : E:VideoVosstanie Kejna.1954.XviD.BDRipVosstanie Kejna.1954.eng.srt
    Размер файла : 274 Кбайт

    Общее
    Полное имя : E:VideoVosstanie Kejna.1954.XviD.BDRipVosstanie Kejna.1954.Original.eng.ac3
    Формат : AC-3
    Формат/Информация : Audio Coding 3
    Размер файла : 399 Мбайт
    Продолжительность : 2 ч. 4 м.
    Режим общего битрейта : Постоянный
    Общий поток : 448 Кбит/сек

    Аудио
    Формат : AC-3
    Формат/Информация : Audio Coding 3
    Расширение режима : CM (complete main)
    Параметр Endianness формата : Big
    Продолжительность : 2 ч. 4 м.
    Вид битрейта : Постоянный
    Битрейт : 448 Кбит/сек
    Каналы : 6 каналов
    Расположение каналов : Front: L C R, Side: L R, LFE
    Частота : 48,0 КГц
    Битовая глубина : 16 бит
    Метод сжатия : С потерями
    Размер потока : 399 Мбайт (100%)

    Общее
    Полное имя : E:VideoVosstanie Kejna.1954.XviD.BDRipVosstanie Kejna.1954.XviD.BDRip.avi
    Формат : AVI
    Формат/Информация : Audio Video Interleave
    Размер файла : 1,83 Гбайт
    Продолжительность : 2 ч. 4 м.
    Общий поток : 2105 Кбит/сек
    Программа кодирования : VirtualDubMod 1.5.10.2 (build 2540/release)
    Библиотека кодирования : VirtualDubMod build 2540/release

    Видео
    Идентификатор : 0
    Формат : MPEG-4 Visual
    Профиль формата : Advanced Simple@L5
    Параметр BVOP формата : 1
    Параметр QPel формата : Нет
    Параметр GMC формата : Без точки перехода
    Параметр матрицы формата : Default (H.263)
    Режим смешивания : Сжатый битовый поток
    Идентификатор кодека : XVID
    Идентификатор кодека/Подсказка : XviD
    Продолжительность : 2 ч. 4 м.
    Битрейт : 1904 Кбит/сек
    Ширина : 720 пикселей
    Высота : 384 пикселя
    Соотношение сторон : 1,85:1
    Частота кадров : 23,976 кадра/сек
    Цветовое пространство : YUV
    Субдискретизация насыщенности : 4:2:0
    Битовая глубина : 8 бит
    Тип развёртки : Прогрессивная
    Метод сжатия : С потерями
    Бит/(Пиксели*Кадры) : 0.287
    Размер потока : 1,66 Гбайт (90%)
    Библиотека кодирования : XviD 1.2.1 (UTC 2008-12-04)

    Аудио
    Идентификатор : 1
    Формат : AC-3
    Формат/Информация : Audio Coding 3
    Расширение режима : CM (complete main)
    Параметр Endianness формата : Big
    Идентификатор кодека : 2000
    Продолжительность : 2 ч. 4 м.
    Вид битрейта : Постоянный
    Битрейт : 192 Кбит/сек
    Каналы : 2 канала
    Расположение каналов : Front: L R
    Частота : 48,0 КГц
    Битовая глубина : 16 бит
    Метод сжатия : С потерями
    Размер потока : 171 Мбайт (9%)
    Выравнивание : Разделение по промежуткам
    Продолжительность промежутка : 42 мс. (1,00 видеокадр)
    Время предзагрузки промежутка : 500 мс.
    Скриншоты для ознакомления



    Залил: msltel
    Размер скачиваемого торрента: 2.22 GB (2385899228 Bytes)

    Восстание Кейна / The Caine Mutiny (1954) BDRip by msltel | P скачать через торрент бесплатно
    загрузка...
    Рейтинг →
     (голосов: 1, оценка 5/5, голосовать можно 1 раз )

    Другие торренты по теме:

  • Восстание Кейна / The Caine Mutiny (1954) BDRip 720p by msltel | P
  • Восстание Кейна / The Caine Mutiny (1954) BDRip 1080p by msltel | P
  • Восстание Кейна / The Caine Mutiny (1954) DVDRip от Кинорадиомагия | P


    • Комментарии (0):

      Информация

      Информация

        Посетители, находящиеся в группе Гости, не могут оставлять комментарии в данной новости.

        ↓ Меню



        ↓ Опрос

        А Вы добавили сайт в закладки?
        Да
        Не


        Top 10 за месяц (Фильмы)