.
Авторизация | Регистрация
Хочешь лучшие торренты? Добавь свой email!
Добавить
» » Последний занавес / The Final Curtain (2002) SATRip от MediaClub | P2 скачать через торрент бесплатно




    Последний занавес / The Final Curtain (2002) SATRip от MediaClub | P2 скачать через торрент бесплатно

    Опубликовал: Админ | Дата: 27-02-2015, 11:10 | Просмотров: 221



    Детально о кино
    Русское название: Последний занавес
    Русское название в мировом прокате: The Final Curtain
    Создали в: 2002
    Категория жанра: Драма
    Главный режиссер: Патрик Харкинс
    Актеры: Питер О’Тул, Эйден Гиллен, Адриан Лестер, Джулия Савалия, Патрик Мэлахайд, Ральф Браун, Сэлли Декстер, Иэн МакНис, Чарльз Саймон, Марк Уильямс

    Сюжет фильма:
    Вам предстоит перекопать тонны грязного белья и узнать, как на самом деле делаются ваши любимые телешоу! В этой комедии может случиться все что угодно, и когда будет опущен занавес… останется лишь один победитель. Но что бы ни произошло, шоу, как известно, должно продолжаться…



    Снималось в: Великобритания, США
    Киностудия: DNA Films, Young Crossbow Productions
    Время просмотра: 01:19:00
    Перевод текста: Профессиональный двухголосый (SDI Media)

    Файл
    Кодек для видео: XviD
    Качество фильма: SATRip
    Информация о видео: 1850 Кбит/с, 720x400, 25.000 кадр/с
    Информация о звуке:
    Информация о звуке #1: Русский (АС3, 2 ch, 192 Кбит/с) / Профессиональный двухголосый (SDI Media)
    Информация о звуке #2: Английский (АС3, 2 ch, 192 Кбит/с)

    Семпл

    Скриншоты для ознакомления

    MI
    Общее
    Полное имя : Poslednij.zanaves.2002.SATRip.MediaClub.avi
    Формат : AVI
    Формат/Информация : Audio Video Interleave
    Размер файла : 1,24 Гбайт
    Продолжительность : 1 ч. 19 м.
    Общий поток : 2248 Кбит/сек
    Название фильма : MediaClub
    Программа кодирования : VirtualDubMod 1.5.10.2 (build 2540/release)
    Библиотека кодирования : VirtualDubMod build 2540/release

    Видео
    Идентификатор : 0
    Формат : MPEG-4 Visual
    Профиль формата : Advanced Simple@L5
    Параметр BVOP формата : 2
    Параметр QPel формата : Нет
    Параметр GMC формата : Без точки перехода
    Параметр матрицы формата : Default (MPEG)
    Идентификатор кодека : XVID
    Идентификатор кодека/Подсказка : XviD
    Продолжительность : 1 ч. 19 м.
    Битрейт : 1850 Кбит/сек
    Ширина : 720 пикселей
    Высота : 400 пикселей
    Соотношение сторон : 16:9
    Частота кадров : 25,000 кадров/сек
    Цветовое пространство : YUV
    Субдискретизация насыщенности : 4:2:0
    Битовая глубина : 8 бит
    Тип развёртки : Прогрессивная
    Метод сжатия : С потерями
    Бит/(Пиксели*Кадры) : 0.257
    Размер потока : 1,02 Гбайт (82%)
    Библиотека кодирования : XviD 65

    Аудио #1
    Идентификатор : 1
    Формат : AC-3
    Формат/Информация : Audio Coding 3
    Расширение режима : CM (complete main)
    Параметр Endianness формата : Big
    Идентификатор кодека : 2000
    Продолжительность : 1 ч. 19 м.
    Вид битрейта : Постоянный
    Битрейт : 192 Кбит/сек
    Каналы : 2 канала
    Расположение каналов : Front: L R
    Частота : 48,0 КГц
    Битовая глубина : 16 бит
    Метод сжатия : С потерями
    Размер потока : 108 Мбайт (9%)
    Выравнивание : Разделение по промежуткам
    Продолжительность промежутка : 40 мс. (1,00 видеокадр)
    Время предзагрузки промежутка : 500 мс.

    Аудио #2
    Идентификатор : 2
    Формат : AC-3
    Формат/Информация : Audio Coding 3
    Расширение режима : CM (complete main)
    Параметр Endianness формата : Big
    Идентификатор кодека : 2000
    Продолжительность : 1 ч. 19 м.
    Вид битрейта : Постоянный
    Битрейт : 192 Кбит/сек
    Каналы : 2 канала
    Расположение каналов : Front: L R
    Частота : 48,0 КГц
    Битовая глубина : 16 бит
    Метод сжатия : С потерями
    Размер потока : 108 Мбайт (9%)
    Выравнивание : Разделение по промежуткам
    Продолжительность промежутка : 40 мс. (1,00 видеокадр)
    Время предзагрузки промежутка : 500 мс.


    Релиз подготовил:
    Залил: poja
    Размер скачиваемого торрента: 1.24 GB (1332191232 Bytes)

    Последний занавес / The Final Curtain (2002) SATRip от MediaClub | P2 скачать через торрент бесплатно
    загрузка...
    Рейтинг →
     (голосов: 1, оценка 3/5, голосовать можно 1 раз )

    Другие торренты по теме:

  • Последний звёздный боец / The Last Starfighter (1984) BDRemux 1080p | А
  • Последний круиз / Final voyage / 1999 / АП (Визгунов) / DVDRip
  • Последний герой / Survivor (2017) HDTVRip 720p | Sunshine Studio
  • Последний американский девственник / Последний девственник Америки / The Last American Virgin (1982) HDRip от Scarabey скачать через торрент бесплатно
  • Последний американский девственник / Последний девственник Америки / The Last American Virgin (1982) HDRip от Scarabey | P
  • Индиана Джонс и последний крестовый поход / Indiana Jones and the Last Crusade (1989) HDRip от Scarabey | Р
  • Городские легенды 2: Последний отрезок / Urban Legends: Final Cut (2000) DVDRip
  • Последний киносеанс / The Last Picture Show (1971) BDRip от HQCLUB


    • Комментарии (0):

      Информация

      Информация

        Посетители, находящиеся в группе Гости, не могут оставлять комментарии в данной новости.

        ↓ Меню



        ↓ Опрос

        А Вы добавили сайт в закладки?
        Да
        Не


        Top 10 за месяц (Фильмы)