.
Авторизация | Регистрация
Хочешь лучшие торренты? Добавь свой email!
Добавить
» » Сонная Лощина / Sleepy Hollow (1999) HDRip от Deadmauvlad | D скачать торрент бесплатно




    Сонная Лощина / Sleepy Hollow (1999) HDRip от Deadmauvlad | D скачать торрент бесплатно

    Опубликовал: Админ | Дата: 27-02-2015, 11:10 | Просмотров: 392


    Создали в: 1999
    Снималось в: США, Германия
    Категория жанра: ужасы, фэнтези, триллер, детектив
    Время просмотра: 01:45:15
    Перевод текста: Профессиональный (Дублированный) (МосФильм Мастер)
    Субтитры подготовлены: нет

    Главный режиссер: Тим Бёртон / Tim Burton

    Актеры: Джонни Депп, Кристина Риччи, Миранда Ричардсон, Кристофер Уокен, Майкл Гэмбон, Каспер Ван Дин, Джеффри Джонс, Ричард Гриффитс, Кристофер Ли, Иен МакДермид

    Сюжет: Нью-Йорк, 1799 год. Икабода Крэйна, молодого констебля, отправляют в местечко Сонная лощина для расследования загадочных убийств. Все жертвы, как сообщает местное население, погибают от меча всадника без головы.

    Все они обезглавлены, а головы исчезли. Крэйну приходится убедиться, что это не легенда, а страшная правда. Становится очевидно, что убийца приходит с того света, что в преступлениях замешаны ведьмы и иная нечисть. Всадника нельзя убить пулей, всех смельчаков он побеждает в схватках. Но каковы мотивы злодеяний?
    Semple ~ 2 Минуты


    Качество фильма: HDRip - Исходник BDRip 1080p
    Тип видео: AVI
    Информация о видео кодек: XviD
    Информация о звуке кодек: MP3
    Информация о видео: 720x400 (1.80:1), 23.976 fps, XviD build 73 ~859 kbps avg, 0.12 bit/pixel
    Информация о звуке: 48 kHz, MPEG Layer 3, 2 ch, ~128.00 kbps avg
    MI
    Общее
    Полное имя : D:Рипы выкладка DeadmauvladРипы готовыеSonnaya.loschina.1999.XviD.HDRip.D.Deadmauvlad.avi
    Формат : AVI
    Формат/Информация : Audio Video Interleave
    Размер файла : 750 Мбайт
    Продолжительность : 1 ч. 45 м.
    Общий поток : 997 Кбит/сек
    Название фильма : Sonnaya.loschina.1999.XviD.HDRip.D.Deadmauvlad
    Режиссёр : Deadmauvlad
    Программа кодирования : VirtualDubMod 1.5.10.3 | www.virtualdub-fr.org || (build 2550/release)
    Библиотека кодирования : VirtualDub build 35390/release

    Видео
    Идентификатор : 0
    Формат : MPEG-4 Visual
    Профиль формата : Advanced Simple@L5
    Параметр BVOP формата : 1
    Параметр QPel формата : Нет
    Параметр GMC формата : Без точки перехода
    Параметр матрицы формата : Выборочная
    Идентификатор кодека : XVID
    Идентификатор кодека/Подсказка : XviD
    Продолжительность : 1 ч. 45 м.
    Битрейт : 859 Кбит/сек
    Ширина : 720 пикселей
    Высота : 400 пикселей
    Соотношение сторон : 16:9
    Частота кадров : 23,976 кадра/сек
    Цветовое пространство : YUV
    Субдискретизация насыщенности : 4:2:0
    Битовая глубина : 8 бит
    Тип развёртки : Прогрессивная
    Метод сжатия : С потерями
    Бит/(Пиксели*Кадры) : 0.124
    Размер потока : 647 Мбайт (86%)
    Библиотека кодирования : XviD 73

    Аудио
    Идентификатор : 1
    Формат : MPEG Audio
    Версия формата : Version 1
    Профиль формата : Layer 3
    Идентификатор кодека : 55
    Идентификатор кодека/Подсказка : MP3
    Продолжительность : 1 ч. 45 м.
    Вид битрейта : Постоянный
    Битрейт : 128 Кбит/сек
    Каналы : 2 канала
    Частота : 48,0 КГц
    Метод сжатия : С потерями
    Размер потока : 96,4 Мбайт (13%)
    Выравнивание : Разделение по промежуткам
    Продолжительность промежутка : 42 мс. (1,00 видеокадр)
    Время предзагрузки промежутка : 500 мс.
    Библиотека кодирования : LAME3.99r
    Залил: DJ_V.K_TV
    Размер скачиваемого торрента: 750.40 MB (786848702 Bytes)


    Сонная Лощина / Sleepy Hollow (1999) HDRip от Deadmauvlad | D торрент скачать бесплатно
    загрузка...
    Рейтинг →
     (голосов: 1, оценка 4/5, голосовать можно 1 раз )

    Другие торренты по теме:

  • OST - Сонная лощина / Sleepy Hollow (1999) MP3
  • Сонная Лощина / Sleepy Hollow (1999) BDRip 720p от MediaClub
  • Сонная лощина. Всадник без головы. Коллекционное издание / Cursed Fates: The Headless Horseman (2013) PC
  • Сонная лощина / Sleepy Hollow (2013) WEB-DLRip | Kerob
  • Сонная лощина / Sleepy Hollow (2013) WEB-DL 720p | SUB
  • Сонная лощина / Sleepy Hollow (2013) HDTVRip | L1
  • Сонная Лощина / Sleepy Hollow (2013) WEBDLRip | NewStudio
  • Сонная лощина / Sleepy Hollow (1999) BDRip-AVC | P, Р2, A


    • Комментарии (0):

      Информация

      Информация

        Посетители, находящиеся в группе Гости, не могут оставлять комментарии в данной новости.

        ↓ Меню



        ↓ Опрос

        А Вы добавили сайт в закладки?
        Да
        Не


        Top 10 за месяц (Фильмы)