.
Авторизация | Регистрация
Хочешь лучшие торренты? Добавь свой email!
Добавить
» » Любовь и секс на Ибице / Verliefd op Ibiza (2013) HDRip-AVC | Лицензия скачать торрент бесплатно




    Любовь и секс на Ибице / Verliefd op Ibiza (2013) HDRip-AVC | Лицензия скачать торрент бесплатно

    Опубликовал: Админ | Дата: 27-02-2015, 11:10 | Просмотров: 229



    Детально о кино
    Русское название: Любовь и секс на Ибице
    Русское название в мировом прокате: Verliefd op Ibiza
    Создали в: 2013
    Категория жанра: мелодрама, комедия
    Главный режиссер: Йохан Нийенхейс
    Актеры: Виллеке ван Аммельрой, Йим Баккум, Рик Энгелкес, Ким Феенстра, Джаспер Готтлиб, Мариус Готтлиб, Кимберли Клавер, Симоне Клейнсма, Ян Коейман, Дэвид Люсиер

    Сюжет фильма: Футболист Кевин только что заключил выгодный контракт с мадридским Реалом. Он вряд ли понимает, что делать со свалившимся на него богатством, но его подруга Эльза знает, как Кевин должен тратить свои миллионы... Две 40-летних подруги Джеки и Ирма хотя и проводят отпуск вместе, но имеют разные представления об идеальном отдыхе: Джеки предпочитает тусоваться с молодыми горячими парнями, тогда как Ирме милее спокойный отдых на пляже с книгой... Братья Дилан и Бойд мечтают стать DJ-звездами мирового класса... Пути всех этих героев пересекаются на острове Ибица.



    Снималось в: Нидерланды / Farmhouse Film TV, Johan Nijenhuis Co, Televisie Radio Omroep Stichting (TROS)
    Время просмотра: 01:56:42
    Перевод текста: Профессиональный (многоголосный) лицензия

    Файл
    Тип видео: MKV
    Качество фильма: HDRip-AVC Рип с BDRip 1080p
    Информация о видео: 2061 kb/s, 1024x552
    Информация о звуке: AC3, 448 kb/s (6 ch)





    MI

    Format : Matroska
    Format version : Version 4 / Version 2
    File size : 2.03 GiB
    Duration : 1h 56mn
    Overall bit rate : 2 491 Kbps
    Encoded date : UTC 2014-01-19 16:37:23
    Writing application : mkvmerge v6.1.0 (;Old Devil;) built on Mar 4 2013 09:10:42
    Writing library : libebml v1.3.0 libmatroska v1.4.0

    Video
    ID : 1
    Format : AVC
    Format/Info : Advanced Video Codec
    Format profile : High@L4.1
    Format settings, CABAC : Yes
    Format settings, ReFrames : 9 frames
    Codec ID : V_MPEG4/ISO/AVC
    Duration : 1h 56mn
    Bit rate : 2 061 Kbps
    Width : 1 024 pixels
    Height : 552 pixels
    Display aspect ratio : 1.85:1
    Frame rate : 24.000 fps
    Color space : YUV
    Chroma subsampling : 4:2:0
    Bit depth : 8 bits
    Scan type : Progressive
    Bits/(Pixel*Frame) : 0.152
    Stream size : 1.62 GiB (80%)
    Writing library : x264 core 130 r2273 b3065e6
    Encoding settings : cabac=1 / ref=9 / deblock=1:-3:-3 / analyse=0x3:0x133 / me=umh / subme=11 / psy=1 / psy_rd=1.00:0.20 / mixed_ref=1 / me_range=32 / chroma_me=1 / trellis=2 / 8x8dct=1 / cqm=0 / deadzone=21,11 / fast_pskip=0 / chroma_qp_offset=-3 / threads=12 / lookahead_threads=2 / sliced_threads=0 / nr=0 / decimate=0 / interlaced=0 / bluray_compat=0 / constrained_intra=0 / bframes=8 / b_pyramid=2 / b_adapt=2 / b_bias=0 / direct=3 / weightb=1 / open_gop=0 / weightp=2 / keyint=250 / keyint_min=23 / scenecut=40 / intra_refresh=0 / rc_lookahead=60 / rc=2pass / mbtree=1 / bitrate=2061 / ratetol=1.0 / qcomp=0.60 / qpmin=0 / qpmax=69 / qpstep=4 / cplxblur=20.0 / qblur=0.5 / ip_ratio=1.40 / aq=1:1.00
    Language : Dutch
    Default : Yes
    Forced : No

    Audio
    ID : 2
    Format : AC-3
    Format/Info : Audio Coding 3
    Mode extension : CM (complete main)
    Format settings, Endianness : Big
    Codec ID : A_AC3
    Duration : 1h 56mn
    Bit rate mode : Constant
    Bit rate : 448 Kbps
    Channel(s) : 6 channels
    Channel positions : Front: L C R, Side: L R, LFE
    Sampling rate : 48.0 KHz
    Bit depth : 16 bits
    Compression mode : Lossy
    Stream size : 374 MiB (18%)
    Language : Russian
    Default : Yes
    Forced : No

    Menu
    00:00:00.000 : en:00:00:00.000
    00:09:54.500 : en:00:09:54.500
    00:19:52.083 : en:00:19:52.083
    00:27:44.458 : en:00:27:44.458
    00:41:05.708 : en:00:41:05.708
    00:47:16.417 : en:00:47:16.417
    00:57:10.875 : en:00:57:10.875
    01:05:25.417 : en:01:05:25.417
    01:14:36.458 : en:01:14:36.458
    01:23:51.292 : en:01:23:51.292
    01:33:20.750 : en:01:33:20.750
    01:45:39.208 : en:01:45:39.208
    Скриншоты для ознакомления

    Размер скачиваемого торрента: 2.03 GB (2180131190 Bytes)

    Любовь и секс на Ибице / Verliefd op Ibiza (2013) HDRip-AVC | Лицензия торрент скачать бесплатно
    загрузка...
    Рейтинг →
     (голосов: 1, оценка 3/5, голосовать можно 1 раз )

    Другие торренты по теме:

  • Любовь и прочие неприятности / Любовь, любопытство, прозак и сомнения / Amor, curiosidad, prozak y dudas (2001) DVD5 | A скачать через торрент бесплатно
  • Девушки без имен / Любовь и Ненависть, Лулу и Аяно / Namae no nai onna-tachi / Love Loathing Lulu Ayano (2010) DVDRip-AVC | Sub
  • Сборник - Лирика, Шансон и Любовь и Зеленые глаза скачать через торрент бесплатно
  • Тайны мира с Анной Чапман. Разоблачение. Любовь и война (2013) SATRip
  • Любовь и кухня / Loves Kitchen (2011) HDRip | Лицензия
  • Любовь и честь / Love and Honor / Bushi no ichibun (2006) BDRip от Rulya74
  • Белый Камень - Любовь и ревность (1991) MP3
  • Виталий Черницкий - Любовь и Музыка (1971-2011) MP3


    • Комментарии (0):

      Информация

      Информация

        Посетители, находящиеся в группе Гости, не могут оставлять комментарии в данной новости.

        ↓ Меню



        ↓ Опрос

        А Вы добавили сайт в закладки?
        Да
        Не


        Top 10 за месяц (Фильмы)