.
Авторизация | Регистрация
Хочешь лучшие торренты? Добавь свой email!
Добавить
» » Сироп / Syrup (2012) HDRip от Deadmauvlad | D | Лицензия скачать через торрент бесплатно




    Сироп / Syrup (2012) HDRip от Deadmauvlad | D | Лицензия скачать через торрент бесплатно

    Опубликовал: Админ | Дата: 27-02-2015, 11:10 | Просмотров: 327



    Русское название: Сироп
    Русское название в мировом прокате: Syrup
    Создали в: 2012
    Категория жанра: Комедия, Драма, Мелодрама
    Главный режиссер: Арам Раппапорт
    Актеры: Эмбер Хёрд, Бриттани Сноу, Келлан Латс, Шайло Фернандес, Тоби Хемингуэй, Рэйчел Дрэч, Джош Пэйс, Грег Пол, Майкл Тех, О-Лан Джонс.
    Молодой и амбициозный молодой человек, сотрудник крупной компании, производящей газированные напитки, придумывает блестящий план на миллион американских долларов. План заключается в разработке и продвижении нового напитка, который сделает его значительно богаче и продвинет на самую вершину карьерной лестницы. Однако на пути у осуществления этого великолепного плана есть одно но — для его воплощения молодой человек должен объединиться с коллегой по работе и научиться доверять ей, а также помириться со своим боссом, наладив с ним нормальные и доверительные рабочие отношения.

    Качество фильма: HDRip | Syrup.2013.LIMITED.1080p.BluRay.x264.GECKOS
    Перевод текста Профессиональный Дубляж (Лицензия BD_Rus)
    Субтитры
    1) Русские (Нотабиноид)
    2) Русские (Владислав Кардаш)
    3) Английские (Цветные)
    4) Английские (Форсированные)
    Информация о видео: 720x304 (2.37:1), 23.976 fps, XviD build 73 ~1 Mbp/s avg, 0.20 bit/pixel
    Информация о звуке: 48 kHz, AC3 Dolby Digital, 2/0 (L,R) ch, ~128 kbps
    Semple ~ 2 минуты
    MI
    Общее
    Полное имя : D:Рипы выкладка DeadmauvladРипы готовыеSyrup.2013.HDRip.XviD.AC3.Deadmauvlad.D.SUB (Rus,Eng)Syrup.2013.HDRip.XviD.AC3.Deadmauvlad.avi
    Формат : AVI
    Формат/Информация : Audio Video Interleave
    Размер файла : 748 Мбайт
    Продолжительность : 1 ч. 29 м.
    Общий поток : 1162 Кбит/сек
    Название фильма : Syrup.2013.HDRip.XviD.AC3.Deadmauvlad
    Режиссёр : Deadmauvlad / Deadmauvlad
    Формат оригинала/Распространитель : Syrup.2013.LIMITED.1080p.BluRay.x264
    Жанр : комедия, приключения
    Тема : Syrup.2013.HDRip.XviD.AC3.Deadmauvlad
    Программа кодирования : VirtualDubMod 1.5.10.3 | www.virtualdub-fr.org || (build 2550/release)
    Формат оригинала : GECKOS
    Формат оригинала/Имя : Фильм
    Правообладатель : Goldenshara / Goldenshara

    Видео
    Идентификатор : 0
    Формат : MPEG-4 Visual
    Профиль формата : Advanced Simple@L5
    Параметр BVOP формата : 1
    Параметр QPel формата : Нет
    Параметр GMC формата : Без точки перехода
    Параметр матрицы формата : Выборочная
    Идентификатор кодека : XVID
    Идентификатор кодека/Подсказка : XviD
    Продолжительность : 1 ч. 29 м.
    Битрейт : 1025 Кбит/сек
    Ширина : 720 пикселей
    Высота : 304 пикселя
    Соотношение сторон : 2,35:1
    Частота кадров : 23,976 кадра/сек
    Цветовое пространство : YUV
    Субдискретизация насыщенности : 4:2:0
    Битовая глубина : 8 бит
    Тип развёртки : Прогрессивная
    Метод сжатия : С потерями
    Бит/(Пиксели*Кадры) : 0.195
    Размер потока : 659 Мбайт (88%)
    Библиотека кодирования : XviD 73

    Аудио
    Идентификатор : 1
    Формат : AC-3
    Формат/Информация : Audio Coding 3
    Расширение режима : CM (complete main)
    Параметр Endianness формата : Big
    Идентификатор кодека : 2000
    Продолжительность : 1 ч. 29 м.
    Вид битрейта : Постоянный
    Битрейт : 128 Кбит/сек
    Каналы : 2 канала
    Расположение каналов : Front: L R
    Частота : 48,0 КГц
    Битовая глубина : 16 бит
    Метод сжатия : С потерями
    Размер потока : 82,4 Мбайт (11%)
    Выравнивание : Соединение по промежуткам
    Продолжительность промежутка : 42 мс. (1,00 видеокадр)
    Время предзагрузки промежутка : 512 мс.

    Общее
    Полное имя : D:Рипы выкладка DeadmauvladРипы готовыеSyrup.2013.HDRip.XviD.AC3.Deadmauvlad.D.SUB (Rus,Eng)Syrup.2013.HDRip.XviD.AC3.Deadmauvlad_ENG (2).srt
    Формат : SubRip
    Размер файла : 101 Кбайт

    Текст
    Формат : SubRip
    Метод сжатия : Без потерь

    Общее
    Полное имя : D:Рипы выкладка DeadmauvladРипы готовыеSyrup.2013.HDRip.XviD.AC3.Deadmauvlad.D.SUB (Rus,Eng)Syrup.2013.HDRip.XviD.AC3.Deadmauvlad_ENG_(1).srt
    Формат : SubRip
    Размер файла : 115 Кбайт

    Текст
    Формат : SubRip
    Метод сжатия : Без потерь

    Общее
    Полное имя : D:Рипы выкладка DeadmauvladРипы готовыеSyrup.2013.HDRip.XviD.AC3.Deadmauvlad.D.SUB (Rus,Eng)Syrup.2013.HDRip.XviD.AC3.Deadmauvlad_Rus (1).srt
    Формат : SubRip
    Размер файла : 137 Кбайт

    Текст
    Формат : SubRip
    Метод сжатия : Без потерь

    Общее
    Полное имя : D:Рипы выкладка DeadmauvladРипы готовыеSyrup.2013.HDRip.XviD.AC3.Deadmauvlad.D.SUB (Rus,Eng)Syrup.2013.HDRip.XviD.AC3.Deadmauvlad_Rus (2).srt
    Формат : SubRip
    Размер файла : 139 Кбайт

    Текст
    Формат : SubRip
    Метод сжатия : Без потерь

    Скриншоты для ознакомления





    Знаете ли вы, что......

    Фильм снят по роману Макса Бэрри Сироп. Книга вышла в свет в 1999 году.

    Автор оригинального романа Сироп Макс Бэрри снялся в эпизодической роли официанта.

    Залил: DJ_V.K_TV
    Размер скачиваемого торрента: 748.15 MB (784487794 Bytes)

    Сироп / Syrup (2012) HDRip от Deadmauvlad | D | Лицензия скачать через торрент бесплатно
    загрузка...
    Рейтинг →
     (голосов: 1, оценка 4/5, голосовать можно 1 раз )

    Другие торренты по теме:

  • Сироп / Syrup (2013) WEB-DL 720p | L1
  • Сироп / Syrup (2012) HDRip от Smart-Tracker | КПК
  • Сироп / Syrup (2012) BDRip от Deadmauvlad | D | Лицензия скачать через торрент бесплатно


    • Комментарии (0):

      Информация

      Информация

        Посетители, находящиеся в группе Гости, не могут оставлять комментарии в данной новости.

        ↓ Меню



        ↓ Опрос

        А Вы добавили сайт в закладки?
        Да
        Не


        Top 10 за месяц (Фильмы)