.
Авторизация | Регистрация
Хочешь лучшие торренты? Добавь свой email!
Добавить
» » За кадром... / In a World... (2013) BDRip 720p | Лицензия скачать через торрент бесплатно




    За кадром... / In a World... (2013) BDRip 720p | Лицензия скачать через торрент бесплатно

    Опубликовал: Админ | Дата: 27-02-2015, 11:10 | Просмотров: 232



    Детально о кино
    Русское название: За кадром...
    Русское название в мировом прокате: In a World...
    Создали в: 2013
    Категория жанра: комедия
    Главный режиссер: Лэйк Белл
    Актеры: Лэйк Белл, Роб Кордри, Александра Холден, Ева Лонгория, Кен Марино, Деметри Мартин, Фред Меламед, Тиг Нотаро, Ник Офферман, Михаэлла Уоткинс

    Сюжет фильма: Завязка сюжета могла прийти в голову только человеку с кинематографическим стажем: Лэйк играет тренера по речи и специалиста по озвучке трейлеров Кэрол. Отец ее героини Сэм Сото — звезда цеха и домашний тиран, отказывающий Кэрол от отчего дома, дабы освободить место для своей 30-летней подружки. Война отцов и детей переносится на оба фронта — личный и профессиональный — когда Кэрол вступает в бой за право озвучивать трейлеры Амазонских игр.



    Снималось в: США / 3311 Productions, In A World, Team G
    Время просмотра: 01:32:57
    Тип перевода: Профессиональное (многоголосное) лицензия

    Файл
    Тип видео: MKV
    Качество фильма: BDRip 720p CHD
    Информация о видео: 3887 kb/s, 1280x534
    Информация о звуке: Russian: AC3, 384 kb/s (6 ch) / English: DTS, 1509 kb/s (6 ch)
    Субтитры: English





    MI

    Format : Matroska
    Format version : Version 2
    File size : 3.75 GiB
    Duration : 1h 32mn
    Overall bit rate : 5 781 Kbps
    Encoded date : UTC 2014-01-18 02:02:51
    Writing application : mkvmerge v6.7.0 (;Back to the Ground;) 64bit built on Jan 8 2014 15:10:52
    Writing library : libebml v1.3.0 libmatroska v1.4.1

    Video
    ID : 1
    Format : AVC
    Format/Info : Advanced Video Codec
    Format profile : High@L4.1
    Format settings, CABAC : Yes
    Format settings, ReFrames : 12 frames
    Codec ID : V_MPEG4/ISO/AVC
    Duration : 1h 32mn
    Bit rate : 3 887 Kbps
    Width : 1 280 pixels
    Height : 534 pixels
    Display aspect ratio : 2.40:1
    Frame rate : 23.976 fps
    Color space : YUV
    Chroma subsampling : 4:2:0
    Bit depth : 8 bits
    Scan type : Progressive
    Bits/(Pixel*Frame) : 0.237
    Stream size : 2.45 GiB (65%)
    Title : In A World 2013
    Writing library : x264 core 133 r2334 a3ac64b
    Encoding settings : cabac=1 / ref=12 / deblock=1:0:0 / analyse=0x3:0x113 / me=umh / subme=10 / psy=1 / psy_rd=1.05:0.10 / mixed_ref=1 / me_range=32 / chroma_me=1 / trellis=2 / 8x8dct=1 / cqm=0 / deadzone=21,11 / fast_pskip=0 / chroma_qp_offset=-2 / threads=12 / lookahead_threads=1 / sliced_threads=0 / nr=0 / decimate=1 / interlaced=0 / bluray_compat=0 / constrained_intra=0 / bframes=6 / b_pyramid=2 / b_adapt=2 / b_bias=0 / direct=3 / weightb=1 / open_gop=0 / weightp=2 / keyint=250 / keyint_min=23 / scenecut=40 / intra_refresh=0 / rc=2pass / mbtree=0 / bitrate=3887 / ratetol=1.0 / qcomp=0.70 / qpmin=0 / qpmax=69 / qpstep=4 / cplxblur=20.0 / qblur=0.5 / ip_ratio=1.40 / pb_ratio=1.30 / aq=2:1.00
    Language : English
    Default : Yes
    Forced : No

    Audio #1
    ID : 2
    Format : AC-3
    Format/Info : Audio Coding 3
    Mode extension : CM (complete main)
    Format settings, Endianness : Big
    Codec ID : A_AC3
    Duration : 1h 32mn
    Bit rate mode : Constant
    Bit rate : 384 Kbps
    Channel(s) : 6 channels
    Channel positions : Front: L C R, Side: L R, LFE
    Sampling rate : 48.0 KHz
    Bit depth : 16 bits
    Compression mode : Lossy
    Stream size : 255 MiB (7%)
    Title : R5
    Language : Russian
    Default : Yes
    Forced : No

    Audio #2
    ID : 3
    Format : DTS
    Format/Info : Digital Theater Systems
    Codec ID : A_DTS
    Duration : 1h 32mn
    Bit rate mode : Constant
    Bit rate : 1 510 Kbps
    Channel(s) : 6 channels
    Channel positions : Front: L C R, Side: L R, LFE
    Sampling rate : 48.0 KHz
    Bit depth : 24 bits
    Compression mode : Lossy
    Stream size : 1 004 MiB (26%)
    Language : English
    Default : No
    Forced : No

    Text #1
    ID : 4
    Format : UTF-8
    Codec ID : S_TEXT/UTF8
    Codec ID/Info : UTF-8 Plain Text
    Title : Forced
    Language : English
    Default : No
    Forced : No

    Text #2
    ID : 5
    Format : UTF-8
    Codec ID : S_TEXT/UTF8
    Codec ID/Info : UTF-8 Plain Text
    Language : English
    Default : No
    Forced : No

    Menu
    00:00:00.000 : en:00:00:00.000
    00:10:13.738 : en:00:10:13.738
    00:16:15.474 : en:00:16:15.474
    00:21:09.185 : en:00:21:09.185
    00:25:32.573 : en:00:25:32.573
    00:30:58.565 : en:00:30:58.565
    00:37:32.750 : en:00:37:32.750
    00:43:17.762 : en:00:43:17.762
    00:47:28.345 : en:00:47:28.345
    00:53:36.797 : en:00:53:36.797
    01:01:49.706 : en:01:01:49.706
    01:05:59.455 : en:01:05:59.455
    01:09:57.527 : en:01:09:57.527
    01:14:01.354 : en:01:14:01.354
    01:18:09.143 : en:01:18:09.143
    01:22:22.312 : en:01:22:22.312
    Скриншоты для ознакомления

    Размер скачиваемого торрента: 3.75 GB (4030403060 Bytes)

    За кадром... / In a World... (2013) BDRip 720p | Лицензия скачать через торрент бесплатно
    загрузка...
    Рейтинг →
     (голосов: 1, оценка 4/5, голосовать можно 1 раз )

    Другие торренты по теме:

  • Сваты-6. За кадром (2013) SATRip от Getty
  • Сваты-6. За кадром (2013) DVB от Getty
  • Сваты Сваты. За кадром (2013) DVDRip
  • Голос. Второй сезон. За кадром (2013) HDTVRip скачать через торрент бесплатно
  • Голос. Второй сезон. За кадром (2013) HDTV 1080i скачать через торрент бесплатно
  • За кадром... / In a World... (2013) BDRip-AVC от MediaClub | Лицензия скачать через торрент бесплатно
  • За кадром... / In a World... (2013) BDRip 720p от Leonardo and Scarabey | Лицензия скачать через торрент бесплатно
  • За кадром... / In a World... (2013) BDRip-AVC от FilmRus | Лицензия скачать через торрент бесплатно


    • Комментарии (0):

      Информация

      Информация

        Посетители, находящиеся в группе Гости, не могут оставлять комментарии в данной новости.

        ↓ Меню



        ↓ Опрос

        А Вы добавили сайт в закладки?
        Да
        Не


        Top 10 за месяц (Фильмы)