.
Авторизация | Регистрация
Хочешь лучшие торренты? Добавь свой email!
Добавить
» » Парки и зоны отдыха / Parks and Recreation (2014) WEB-DLRip | L2 скачать торрент бесплатно




    Парки и зоны отдыха / Parks and Recreation (2014) WEB-DLRip | L2 скачать торрент бесплатно

    Опубликовал: Админ | Дата: 27-02-2015, 11:10 | Просмотров: 311

    Парки и Зоны Отдыха / Parks and Recreation

    Создали в: 2013
    Снималось в: США
    Категория жанра: Комедия
    Время просмотра: ~ 20 минут

    Перевод текста: Любительский (двухголосый закадровый) To4ka
    Субтитры: нет
    Главный режиссёр: Грег Дэниелс

    Актеры: Эми Полер, Рашида Джонс, Азиз Ансари, Обри Плаза, Пол Шнайдер, Ник Офферман, Крис Прэтт, Йен Робертс, Лаудон Уэйнрайт III, Джим О;Хейр и др.

    Сюжет: Проект продюсеров и сценаристов The Office. Лесли Ноуп - блондинка-чиновница, совершенно безумная и заставляющая зрителей пережить кучу эмоций, заботится о городе и о его благоустройстве. Лесли попадает в миллион разных дурацких ситуаций, над ней все смеются, но она все преодолеет и станет победителем!

    Доп. информация:

    Перевод текста: notabenoid (Katakimiku)
    Озвучка:Катерина Магура и Вячеслав Айсберг
    Монтаж и работа со звуком:Murzilka
    Работа с видео и рип:veryserg

    При поддержке:участников группы Парки и Зоны Отдыха в VK
    Отдельная благодарность:Ксении


    Сэмпл: http://multi-up.com/934878

    Качество фильма: WEB-DLRip
    Тип видео: AVI
    Информация о видео кодек: XviD
    Информация о звуке кодек: MP3
    Информация о видео: 720x400 (1.80:1), 23.976 fps, XviD ~1352 kbps avg, 0.20 bit/pixel
    Информация о звуке 1: 48 kHz, MPEG Layer 3, 2 ch, ~128.00 kbps avg (RUS)
    Информация о звуке 2: 48 kHz, MPEG Layer 3, 2 ch, ~128.00 kbps avg (ENG)
    MediaInfo

    General
    Complete name : D:МУРЗИЛКИНО1111111111ЧИСТЫЕParks.and.Recreation.s06_To4ka.TVParks.and.Recreation.s06e03.WEB-DLRip.To4ka.TV.avi
    Format : AVI
    Format/Info : Audio Video Interleave
    File size : 250 MiB
    Duration : 21mn 30s
    Overall bit rate : 1 623 Kbps
    Writing application : VirtualDubModRus 1.5.10.2 (build 2540/release)
    Writing library : VirtualDubMod build 2540/release

    Video
    ID : 0
    Format : MPEG-4 Visual
    Format profile : Advanced Simple@L5
    Format settings, BVOP : 1
    Format settings, QPel : No
    Format settings, GMC : No warppoints
    Format settings, Matrix : Default (MPEG)
    Codec ID : XVID
    Codec ID/Hint : XviD
    Duration : 21mn 30s
    Bit rate : 1 353 Kbps
    Width : 720 pixels
    Height : 400 pixels
    Display aspect ratio : 16:9
    Frame rate : 23.976 fps
    Color space : YUV
    Chroma subsampling : 4:2:0
    Bit depth : 8 bits
    Scan type : Progressive
    Compression mode : Lossy
    Bits/(Pixel*Frame) : 0.196
    Stream size : 208 MiB (83%)
    Writing library : XviD 64

    Audio #1
    ID : 1
    Format : MPEG Audio
    Format version : Version 1
    Format profile : Layer 3
    Mode : Joint stereo
    Mode extension : MS Stereo
    Codec ID : 55
    Codec ID/Hint : MP3
    Duration : 21mn 30s
    Bit rate mode : Constant
    Bit rate : 128 Kbps
    Channel(s) : 2 channels
    Sampling rate : 48.0 KHz
    Compression mode : Lossy
    Stream size : 19.7 MiB (8%)
    Alignment : Aligned on interleaves
    Interleave, duration : 42 ms (1.00 video frame)
    Interleave, preload duration : 504 ms
    Writing library : LAME3.95

    Audio #2
    ID : 2
    Format : MPEG Audio
    Format version : Version 1
    Format profile : Layer 3
    Mode : Joint stereo
    Mode extension : MS Stereo
    Codec ID : 55
    Codec ID/Hint : MP3
    Duration : 21mn 30s
    Bit rate mode : Constant
    Bit rate : 128 Kbps
    Channel(s) : 2 channels
    Sampling rate : 48.0 KHz
    Compression mode : Lossy
    Stream size : 19.7 MiB (8%)
    Alignment : Aligned on interleaves
    Interleave, duration : 42 ms (1.00 video frame)
    Interleave, preload duration : 504 ms
    Writing library : LAME3.98r
    Encoding settings : -m j -V 4 -q 2 -lowpass 17 -b 128

    Скриншоты для ознакомления


    Gifs

    Внимание! Раздача ведется путем добавления серий

    Внимание! Раздача ведётся путём добавления новых серий; при каждом добавлении создётся новый торрент. Чтобы начать докачку новой серии, пользователям необходимо сделать следующее: (1) остановить скачивание, (2) удалить старый торрент у себя из клиента (старые серии удалять не надо), (3) скачать новый торрент и запустить его у себя в клиенте вместо старого, при этом указать клиенту путь в старую папку куда и должно происходить скачивание новых серий.

    Ваш клиент при этом должен произвести хеширование (проверку) старой папки (если не производит сам - помогите ему сделать это), и будет докачивать только те серии которых у вас ещё нет. Старые серии при этом не удаляются, а продолжают раздаваться!

    Eсли вы уже удалили старые серии, то предотвратить повторную закачку старых серий можно, отжав галочку в соответсвующих местах при запуске нового торрента. По возможности, желательно не удалять старые серии как можно дольше чтобы релизёр не столько продолжал раздавать старые серии, а смог сконцентрироваться на новых.

    Размер скачиваемого торрента: 1.66 GB (1783021568 Bytes)

    Парки и зоны отдыха / Parks and Recreation (2014) WEB-DLRip | L2 торрент скачать бесплатно
    загрузка...
    Рейтинг →
     (голосов: 1, оценка 5/5, голосовать можно 1 раз )

    Другие торренты по теме:

  • Парки и зоны отдыха / Parks and Recreation (2012) WEB-DLRip | L2
  • Парки и зоны отдыха / Parks and Recreation (2014) WEB-DL 720p | L2


    • Комментарии (0):

      Информация

      Информация

        Посетители, находящиеся в группе Гости, не могут оставлять комментарии в данной новости.

        ↓ Меню



        ↓ Опрос

        А Вы добавили сайт в закладки?
        Да
        Не


        Top 10 за месяц (Фильмы)