.
Авторизация | Регистрация
Хочешь лучшие торренты? Добавь свой email!
Добавить
» » Борджиа (ФГ) / Borgia (2011) HDRip от Generalfilm | КПК скачать торрент бесплатно




    Борджиа (ФГ) / Borgia (2011) HDRip от Generalfilm | КПК скачать торрент бесплатно

    Опубликовал: Админ | Дата: 27-02-2015, 11:10 | Просмотров: 404



    Детально о кино
    Русское название: Борджиа (ФГ)
    Русское название в мировом прокате: Borgia
    Создали в: 2011
    Категория жанра: Историческая драма
    Главный режиссер: Оливер Хиршбигель, Метин Хусейн, Кристоф Шреве
    Актеры: Джон Доумен, Изольда Дюшаук, Арт Малик, Дяьрмуид Нойес, Марк Дэвисон, Марта Гастини, Ассумпта Серна, Стэнли Вебер, Андреа Завацки, Виктор Шефе, Андреа Завацки, Николас Бельмонте, Деян Чукич, Ричард Саутгейт, Мирослав Таборски, Джон Брэдли, Карел Добры, Педжа Бьелак

    Сюжет фильма:
    Шокирующий путь восхождения к власти и доминированию одного из самых жестоких и развратных семейств 15 века. Папа Римский Иннокентий VIII на смертном одре. Вице-канцлер Римской церкви Родриго Борджиа шаг за шагом прокладывает путь к престолу. Он имел и многочисленное внебрачное потомство, и в бытность кардиналом в своём дворце сожительствовал со множеством женщин, нажил немало врагов. Но стать новым Папой ему никто не в силах помешать. Разработка франко-германской версии Borgia началась на 11 месяцев раньше одноименной драмы от Showtime с Джереми Айронсом и стоили 30 млн. долларов. Съёмки проходили в Чехии. Насилие, обнаженка и крепкое словцо, присущие контенту Canal , есть и в Borgia.



    Снималось в: Германия, Франция, Чехия
    Время просмотра: 12 x ~00:54:00
    Перевод текста: Профессиональный (многоголосый) ТК Домашний

    Файл
    Тип видео: MP4
    Качество фильма: HDRip | КПК
    Информация о видео: MPEG-4 AVC (x264), 640 x 480, ~500 kbps, 25.000 fps
    Информация о звуке: AAC LC, 48.0 KHz, 2 ch, 128 Kbps
    Субтитры: Нет

    Семпл

    Скриншоты для ознакомления

    MI
    General
    Complete name : E:KinoBordzhiya.FG.S01.2011.AVC.HDRip.KPK.GeneralfilmBordzhiya.FG.s01e06.2011.AVC.HDRip.KPK.Generalfilm.mp4
    Format : MPEG-4
    Format profile : Base Media
    Codec ID : isom
    File size : 243 MiB
    Duration : 53mn 52s
    Overall bit rate mode : Variable
    Overall bit rate : 631 Kbps
    Encoded date : UTC 2014-01-11 13:02:27
    Tagged date : UTC 2014-01-11 13:02:27

    Video
    ID : 1
    Format : AVC
    Format/Info : Advanced Video Codec
    Format profile : Baseline@L4.1
    Format settings, CABAC : No
    Format settings, ReFrames : 6 frames
    Codec ID : avc1
    Codec ID/Info : Advanced Video Coding
    Duration : 53mn 52s
    Bit rate : 500 Kbps
    Maximum bit rate : 2 545 Kbps
    Width : 640 pixels
    Height : 360 pixels
    Display aspect ratio : 16:9
    Frame rate mode : Constant
    Frame rate : 25.000 fps
    Color space : YUV
    Chroma subsampling : 4:2:0
    Bit depth : 8 bits
    Scan type : Progressive
    Bits/(Pixel*Frame) : 0.087
    Stream size : 193 MiB (79%)
    Writing library : x264 core 125 r2200 999b753
    Encoding settings : cabac=0 / ref=6 / deblock=1:-1:-1 / analyse=0x1:0x111 / me=umh / subme=7 / psy=1 / psy_rd=1.00:0.00 / mixed_ref=0 / me_range=16 / chroma_me=1 / trellis=1 / 8x8dct=0 / cqm=0 / deadzone=21,11 / fast_pskip=0 / chroma_qp_offset=-2 / threads=12 / lookahead_threads=2 / sliced_threads=0 / nr=0 / decimate=1 / interlaced=0 / bluray_compat=0 / constrained_intra=0 / bframes=0 / weightp=0 / keyint=250 / keyint_min=25 / scenecut=40 / intra_refresh=0 / rc_lookahead=60 / rc=2pass / mbtree=1 / bitrate=500 / ratetol=1.0 / qcomp=0.60 / qpmin=0 / qpmax=69 / qpstep=4 / cplxblur=20.0 / qblur=0.5 / ip_ratio=1.40 / aq=1:1.00
    Encoded date : UTC 2014-01-11 13:02:27
    Tagged date : UTC 2014-01-11 13:02:32

    Audio
    ID : 2
    Format : AAC
    Format/Info : Advanced Audio Codec
    Format profile : LC
    Codec ID : 40
    Duration : 53mn 52s
    Bit rate mode : Variable
    Bit rate : 128 Kbps
    Maximum bit rate : 149 Kbps
    Channel count : 2 channels
    Channel positions : Front: L R
    Sampling rate : 44.1 KHz
    Compression mode : Lossy
    Stream size : 49.3 MiB (20%)
    Encoded date : UTC 2014-01-11 13:02:31
    Tagged date : UTC 2014-01-11 13:02:32

    Релиз подготовил:
    Залил: toys_watch
    Размер скачиваемого торрента: 2.88 GB (3092776474 Bytes)

    Борджиа (ФГ) / Borgia (2011) HDRip от Generalfilm | КПК торрент скачать бесплатно
    загрузка...
    Рейтинг →
     (голосов: 1, оценка 4/5, голосовать можно 1 раз )

    Другие торренты по теме:

  • Борджиа (ФГ) / Borgia (2011) BDRip 720 от Torrent-Xzona | P
  • Борджиа (ФГ) / Borgia (2013) HDTVRip 720p | Sub скачать через торрент бесплатно
  • Борджиа (ФГ) / Borgia (2011) BD-Remux 1080p | Домашний скачать через торрент бесплатно
  • Борджиа (ФГ) / Borgia (2011) HDRip от Generalfilm
  • Борджиа (ФГ) / Borgia (2011) BDRip | Домашний скачать через торрент бесплатно
  • Борджиа (ФГ) / Borgia (2014) BDrip-AVC | SET
  • Борджиа (ФГ) / Borgia (2014) HDRip от Generalfilm | SET Russia


    • Комментарии (0):

      Информация

      Информация

        Посетители, находящиеся в группе Гости, не могут оставлять комментарии в данной новости.

        ↓ Меню



        ↓ Опрос

        А Вы добавили сайт в закладки?
        Да
        Не


        Top 10 за месяц (Фильмы)