.
Авторизация | Регистрация
Хочешь лучшие торренты? Добавь свой email!
Добавить
» » Плащаница / The Robe (1953) BDRip by msltel | P, L1 скачать через торрент бесплатно




    Плащаница / The Robe (1953) BDRip by msltel | P, L1 скачать через торрент бесплатно

    Опубликовал: Админ | Дата: 27-02-2015, 11:10 | Просмотров: 389



    Русское название: Плащаница
    Русское название в мировом прокате: The Robe
    Создали в: 1953
    Категория жанра: Драма
    Снималось в: США, Twentieth Century Fox Film Corporation
    Главный режиссер: Генри Костер
    Актеры: Ричард Бёртон, Джин Симмонс, Виктор Мэтьюр, Майкл Ренни, Джей Робинсон, Дин Джаггер, Торин Тэтчер, Ричард Бун, Бетта Сент-Джон, Джефф Морроу, Эрнест Тезигер, Дон Аддамс, Леон Аскин, Майкл Ансара, Жан Арван, Фрэнк ДеКова, Джон Дусетт, Энтони Эстрел, Майкл Грэйнджер, Перси Хелтон, Мэй Марш, Гарри Ширер, Джордж Е. Стоун ст., Форд Рейни, Хэйден Рорк

    Сюжет фильма: Римский центурион Галл Марцелл был беден и неудачлив, но он очень любил азартные игры. И однажды ему сказочно повезло — он выиграл одежду распятого на Голгофе за какие-то пригрешения осуждённого. Если бы он мог заранее знать, как навсегда изменится его жизнь, если бы он только мог представить себе, что значит выиграть хитон самого Христа…

    Качество фильма: BDRip
    Размер скачиваемого торрента: 2.59 ГБ
    Время просмотра: 02:13:31

    Информация о видео: XviD, 1489 Кбит/с, 720x288
    Информация о звуке: русский, 48 kHz, AC3, 2 ch, 192 kbps avg, Профессиональный многоголосый, ОРТ

    Внешние файлы
    Информация о звуке: русский, 48 kHz, AC3, 6 ch, 448 kbps avg, Профессиональный многоголосый, R5
    Информация о звуке: русский, 48 kHz, AC3, 2 ch, 192 kbps avg, Любительский одноголосый, Сергей Козлов
    Информация о звуке: английский, 48 kHz, AC3, 6 ch, 448 kbps avg, Оригинал

    Исходник: ЗЕВС911 (Кинозал)

    Сравнение с исходником



    Награды
    Оскар, 1954 год
    Победитель (2):
    Лучшая работа художника (цветные фильмы)
    Лучшая работа художника по костюмам (цветные фильмы)

    Номинации (3):
    Лучший фильм
    Лучшая мужская роль (Ричард Бёртон)
    Лучшая работа оператора (цветные фильмы)

    Золотой глобус, 1954 год
    Победитель (1):
    Лучший фильм (драма)
    MediaInfo
    Общее
    Полное имя : E:VideoPlashanica.1953.XviD.BDRipPlashanica.1953.eng.SDH.srt
    Размер файла : 234 Кбайт

    Общее
    Полное имя : E:VideoPlashanica.1953.XviD.BDRipPlashanica.1953.MVO.rus.R5.ac3
    Формат : AC-3
    Формат/Информация : Audio Coding 3
    Размер файла : 428 Мбайт
    Продолжительность : 2 ч. 13 м.
    Режим общего битрейта : Постоянный
    Общий поток : 448 Кбит/сек

    Аудио
    Формат : AC-3
    Формат/Информация : Audio Coding 3
    Расширение режима : CM (complete main)
    Параметр Endianness формата : Big
    Продолжительность : 2 ч. 13 м.
    Вид битрейта : Постоянный
    Битрейт : 448 Кбит/сек
    Каналы : 6 каналов
    Расположение каналов : Front: L C R, Side: L R, LFE
    Частота : 48,0 КГц
    Битовая глубина : 16 бит
    Метод сжатия : С потерями
    Размер потока : 428 Мбайт (100%)

    Общее
    Полное имя : E:VideoPlashanica.1953.XviD.BDRipPlashanica.1953.Original.eng.ac3
    Формат : AC-3
    Формат/Информация : Audio Coding 3
    Размер файла : 428 Мбайт
    Продолжительность : 2 ч. 13 м.
    Режим общего битрейта : Постоянный
    Общий поток : 448 Кбит/сек

    Аудио
    Формат : AC-3
    Формат/Информация : Audio Coding 3
    Расширение режима : CM (complete main)
    Параметр Endianness формата : Big
    Продолжительность : 2 ч. 13 м.
    Вид битрейта : Постоянный
    Битрейт : 448 Кбит/сек
    Каналы : 6 каналов
    Расположение каналов : Front: L C R, Side: L R, LFE
    Частота : 48,0 КГц
    Битовая глубина : 16 бит
    Метод сжатия : С потерями
    Размер потока : 428 Мбайт (100%)

    Общее
    Полное имя : E:VideoPlashanica.1953.XviD.BDRipPlashanica.1953.rus.srt
    Размер файла : 207 Кбайт

    Общее
    Полное имя : E:VideoPlashanica.1953.XviD.BDRipPlashanica.1953.VO.rus.С.Козлов, любительский.ac3
    Формат : AC-3
    Формат/Информация : Audio Coding 3
    Размер файла : 183 Мбайт
    Продолжительность : 2 ч. 13 м.
    Режим общего битрейта : Постоянный
    Общий поток : 192 Кбит/сек

    Аудио
    Формат : AC-3
    Формат/Информация : Audio Coding 3
    Профиль формата : Dolby Digital
    Расширение режима : CM (complete main)
    Параметр Endianness формата : Big
    Продолжительность : 2 ч. 13 м.
    Вид битрейта : Постоянный
    Битрейт : 192 Кбит/сек
    Каналы : 2 канала
    Расположение каналов : Front: L R
    Частота : 48,0 КГц
    Битовая глубина : 16 бит
    Метод сжатия : С потерями
    Размер потока : 183 Мбайт (100%)

    Общее
    Полное имя : E:VideoPlashanica.1953.XviD.BDRipPlashanica.1953.XviD.BDRip.avi
    Формат : AVI
    Формат/Информация : Audio Video Interleave
    Размер файла : 1,58 Гбайт
    Продолжительность : 2 ч. 13 м.
    Общий поток : 1691 Кбит/сек
    Программа кодирования : VirtualDubMod 1.5.10.2 (build 2540/release)
    Библиотека кодирования : VirtualDubMod build 2540/release

    Видео
    Идентификатор : 0
    Формат : MPEG-4 Visual
    Профиль формата : Advanced Simple@L5
    Параметр BVOP формата : 1
    Параметр QPel формата : Нет
    Параметр GMC формата : Без точки перехода
    Параметр матрицы формата : Default (H.263)
    Режим смешивания : Сжатый битовый поток
    Идентификатор кодека : XVID
    Идентификатор кодека/Подсказка : XviD
    Продолжительность : 2 ч. 13 м.
    Битрейт : 1489 Кбит/сек
    Ширина : 720 пикселей
    Высота : 288 пикселей
    Соотношение сторон : 2,500
    Частота кадров : 23,976 кадра/сек
    Цветовое пространство : YUV
    Субдискретизация насыщенности : 4:2:0
    Битовая глубина : 8 бит
    Тип развёртки : Прогрессивная
    Метод сжатия : С потерями
    Бит/(Пиксели*Кадры) : 0.300
    Размер потока : 1,39 Гбайт (88%)
    Библиотека кодирования : XviD 1.2.1 (UTC 2008-12-04)

    Аудио
    Идентификатор : 1
    Формат : AC-3
    Формат/Информация : Audio Coding 3
    Профиль формата : Dolby Digital
    Расширение режима : CM (complete main)
    Параметр Endianness формата : Big
    Идентификатор кодека : 2000
    Продолжительность : 2 ч. 13 м.
    Вид битрейта : Постоянный
    Битрейт : 192 Кбит/сек
    Каналы : 2 канала
    Расположение каналов : Front: L R
    Частота : 48,0 КГц
    Битовая глубина : 16 бит
    Метод сжатия : С потерями
    Размер потока : 183 Мбайт (11%)
    Выравнивание : Разделение по промежуткам
    Продолжительность промежутка : 42 мс. (1,00 видеокадр)
    Время предзагрузки промежутка : 500 мс.
    Скриншоты для ознакомления



    Залил: msltel
    Размер скачиваемого торрента: 2.59 GB (2783098062 Bytes)

    Плащаница / The Robe (1953) BDRip by msltel | P, L1 скачать через торрент бесплатно
    загрузка...
    Рейтинг →
     (голосов: 1, оценка 3/5, голосовать можно 1 раз )

    Другие торренты по теме:

  • Плащаница / The Robe (1953) BDRip 720p by msltel | P, L1
  • Плащаница / The Robe (1953) BDRip 1080p by msltel | P, L1 скачать через торрент бесплатно
  • Туринская плащаница (2014) HDTVRip от GeneralFilm
  • Плащаница Александра Невского (Роковая кража) / 1991 / РУ / DVD-5
  • Плащаница / The Robe (1953) BDRip от Koenig | P


    • Комментарии (0):

      Информация

      Информация

        Посетители, находящиеся в группе Гости, не могут оставлять комментарии в данной новости.

        ↓ Меню



        ↓ Опрос

        А Вы добавили сайт в закладки?
        Да
        Не


        Top 10 за месяц (Фильмы)