.
Авторизация | Регистрация
Хочешь лучшие торренты? Добавь свой email!
Добавить
» » Тихий человек / The Quiet Man (1952) BDRip by msltel | P скачать через торрент бесплатно




    Тихий человек / The Quiet Man (1952) BDRip by msltel | P скачать через торрент бесплатно

    Опубликовал: Админ | Дата: 27-02-2015, 11:09 | Просмотров: 307



    Русское название: Тихий человек
    Русское название в мировом прокате: The Quiet Man
    Создали в: 1952
    Категория жанра: Драма, мелодрама, комедия
    Снималось в: США, Argosy Pictures Corporation, Republic Pictures (I)
    Главный режиссер: Джон Форд
    Актеры: Джон Уэйн, Морин О`Хара, Бэрри Фицджералд, Уорд Бонд, Виктор МакЛаглен, Милдред Нэтвик, Френсис Форд, Эйлин Кроу, Мэй Крэйг, Артур Шилдс, Чарльз Б. Фицсаймонс, Джеймс О’Хара, Шон МакКлори, Джек МакГоурэн, Джозеф О’Ди, Эрик Горман, Кевин Лоулесс, Пэдди О’Доннелл, Фрэнк Бэйкер, Морин Койн, Кен Кертис, Мими Дойл, Дуглас Эванс, Роберт Фой, Сэм Харрис, Мэй Марш, Пэт О’Мэлли, Филип Стейнтон, Гарри Тенбрук, Майкл Уэйн, Патрик Уэйн, Тони Уэйн

    Сюжет фильма: Американский боксёр Шон Торнтон возвращается к себе на родину в Ирландию, где влюбляется в чудесную девушку Мэри Кэт. Она — его идеал, такое светлое чувство он испытал впервые. Однако он подзабыл, что за народ живёт в его родных краях. Ему приходится иметь дело с местными традициями и обычаями (включая выплату калыма). Да и тупоголовый упрямый братец юной феи далеко не подарок, он ведь главный забияка и драчун в городке. Но храброму Шону всё нипочём — ведь он влюблён, решителен и смел, крепкий парень и может постоять за себя, боксёрская школа не забыта.

    Качество фильма: BDRip
    Размер скачиваемого торрента: 2.43 ГБ
    Время просмотра: 02:09:45

    Информация о видео: XviD, 1899 Кбит/с, 720x528
    Информация о звуке: русский, 48 kHz, AC3, 2 ch, 192 kbps avg, Профессиональный многоголосый, New Dream Media

    Внешние файлы
    Информация о звуке: русский, 48 kHz, AC3, 2 ch, 192 kbps avg, Профессиональный многоголосый, SomeWax
    Информация о звуке: русский, 48 kHz, AC3, 2 ch, 192 kbps avg, Профессиональный многоголосый, Светла
    Информация о звуке: английский, 48 kHz, AC3, 1 ch, 192 kbps avg, Оригинал
    Субтитры: русские (SomeWax)
    Субтитры: английские

    Исходник: palmeiras (Рутрекер)

    Сравнение с исходником



    Награды
    Оскар, 1953 год
    Победитель (2):
    Лучший режиссер (Джон Форд)
    Лучшая работа оператора (цветные фильмы)

    Номинации (5):
    Лучший фильм
    Лучшая мужская роль второго плана (Виктор МакЛаглен)
    Лучший адаптированный сценарий
    Лучшая работа художника (цветные фильмы)
    Лучший звук

    Золотой глобус, 1953 год
    Номинации (2):

    Лучший саундтрек
    Лучший режиссер (Джон Форд)

    Венецианский кинофестиваль, 1952 год
    Победитель (2):
    Международная премия
    Приз Международной Католической организации в области кино (OCIC)

    Номинации (1):
    Золотой лев
    MediaInfo
    Общее
    Полное имя : E:VideoTihij chelovek.1952.XviD.BDRipTihij chelovek.1952.eng.srt
    Размер файла : 171 Кбайт

    Общее
    Полное имя : E:VideoTihij chelovek.1952.XviD.BDRipTihij chelovek.1952.MVO.rus.SomeWax.ac3
    Формат : AC-3
    Формат/Информация : Audio Coding 3
    Размер файла : 178 Мбайт
    Продолжительность : 2 ч. 9 м.
    Режим общего битрейта : Постоянный
    Общий поток : 192 Кбит/сек

    Аудио
    Формат : AC-3
    Формат/Информация : Audio Coding 3
    Расширение режима : CM (complete main)
    Параметр Endianness формата : Big
    Продолжительность : 2 ч. 9 м.
    Вид битрейта : Постоянный
    Битрейт : 192 Кбит/сек
    Каналы : 2 канала
    Расположение каналов : Front: L R
    Частота : 48,0 КГц
    Битовая глубина : 16 бит
    Метод сжатия : С потерями
    Размер потока : 178 Мбайт (100%)

    Общее
    Полное имя : E:VideoTihij chelovek.1952.XviD.BDRipTihij chelovek.1952.MVO.rus.Светла.ac3
    Формат : AC-3
    Формат/Информация : Audio Coding 3
    Размер файла : 178 Мбайт
    Продолжительность : 2 ч. 9 м.
    Режим общего битрейта : Постоянный
    Общий поток : 192 Кбит/сек

    Аудио
    Формат : AC-3
    Формат/Информация : Audio Coding 3
    Профиль формата : Dolby Digital
    Расширение режима : CM (complete main)
    Параметр Endianness формата : Big
    Продолжительность : 2 ч. 9 м.
    Вид битрейта : Постоянный
    Битрейт : 192 Кбит/сек
    Каналы : 2 канала
    Расположение каналов : Front: L R
    Частота : 48,0 КГц
    Битовая глубина : 16 бит
    Метод сжатия : С потерями
    Размер потока : 178 Мбайт (100%)

    Общее
    Полное имя : E:VideoTihij chelovek.1952.XviD.BDRipTihij chelovek.1952.Original.eng.ac3
    Формат : AC-3
    Формат/Информация : Audio Coding 3
    Размер файла : 178 Мбайт
    Продолжительность : 2 ч. 9 м.
    Режим общего битрейта : Постоянный
    Общий поток : 192 Кбит/сек

    Аудио
    Формат : AC-3
    Формат/Информация : Audio Coding 3
    Расширение режима : CM (complete main)
    Параметр Endianness формата : Big
    Продолжительность : 2 ч. 9 м.
    Вид битрейта : Постоянный
    Битрейт : 192 Кбит/сек
    Каналы : 1 канал
    Расположение каналов : Front: C
    Частота : 48,0 КГц
    Битовая глубина : 16 бит
    Метод сжатия : С потерями
    Размер потока : 178 Мбайт (100%)

    Общее
    Полное имя : E:VideoTihij chelovek.1952.XviD.BDRipTihij chelovek.1952.rus.SomeWax.srt
    Размер файла : 169 Кбайт

    Общее
    Полное имя : E:VideoTihij chelovek.1952.XviD.BDRipTihij chelovek.1952.XviD.BDRip.avi
    Формат : AVI
    Формат/Информация : Audio Video Interleave
    Размер файла : 1,90 Гбайт
    Продолжительность : 2 ч. 9 м.
    Общий поток : 2100 Кбит/сек
    Программа кодирования : VirtualDubMod 1.5.10.2 (build 2540/release)
    Библиотека кодирования : VirtualDubMod build 2540/release

    Видео
    Идентификатор : 0
    Формат : MPEG-4 Visual
    Профиль формата : Advanced Simple@L5
    Параметр BVOP формата : 1
    Параметр QPel формата : Нет
    Параметр GMC формата : Без точки перехода
    Параметр матрицы формата : Default (H.263)
    Режим смешивания : Сжатый битовый поток
    Идентификатор кодека : XVID
    Идентификатор кодека/Подсказка : XviD
    Продолжительность : 2 ч. 9 м.
    Битрейт : 1899 Кбит/сек
    Ширина : 720 пикселей
    Высота : 528 пикселей
    Соотношение сторон : 4:3
    Частота кадров : 23,976 кадра/сек
    Цветовое пространство : YUV
    Субдискретизация насыщенности : 4:2:0
    Битовая глубина : 8 бит
    Тип развёртки : Прогрессивная
    Метод сжатия : С потерями
    Бит/(Пиксели*Кадры) : 0.208
    Размер потока : 1,72 Гбайт (90%)
    Библиотека кодирования : XviD 1.2.1 (UTC 2008-12-04)

    Аудио
    Идентификатор : 1
    Формат : AC-3
    Формат/Информация : Audio Coding 3
    Расширение режима : CM (complete main)
    Параметр Endianness формата : Big
    Идентификатор кодека : 2000
    Продолжительность : 2 ч. 9 м.
    Вид битрейта : Постоянный
    Битрейт : 192 Кбит/сек
    Каналы : 2 канала
    Расположение каналов : Front: L R
    Частота : 48,0 КГц
    Битовая глубина : 16 бит
    Метод сжатия : С потерями
    Размер потока : 178 Мбайт (9%)
    Выравнивание : Разделение по промежуткам
    Продолжительность промежутка : 42 мс. (1,00 видеокадр)
    Время предзагрузки промежутка : 500 мс.
    Скриншоты для ознакомления



    Залил: msltel
    Размер скачиваемого торрента: 2.43 GB (2604747352 Bytes)

    Тихий человек / The Quiet Man (1952) BDRip by msltel | P скачать через торрент бесплатно
    загрузка...
    Рейтинг →
     (голосов: 1, оценка 4/5, голосовать можно 1 раз )

    Другие торренты по теме:

  • Тихий человек / The Quiet Man (1952) BDRip 720p by msltel | P
  • Тихий человек / The Quiet Man (1952) BDRip 1080p by msltel | P


    • Комментарии (0):

      Информация

      Информация

        Посетители, находящиеся в группе Гости, не могут оставлять комментарии в данной новости.

        ↓ Меню



        ↓ Опрос

        А Вы добавили сайт в закладки?
        Да
        Не


        Top 10 за месяц (Фильмы)