.
Авторизация | Регистрация
Хочешь лучшие торренты? Добавь свой email!
Добавить
» » Эффект спускового курка / The Trigger Effect (1996) DVDRip | P скачать торрент бесплатно




    Эффект спускового курка / The Trigger Effect (1996) DVDRip | P скачать торрент бесплатно

    Опубликовал: Админ | Дата: 27-02-2015, 11:09 | Просмотров: 328



    Детально о кино
    Русское название: Эффект спускового курка
    Русское название в мировом прокате: The Trigger Effect
    Создали в: 1996
    Категория жанра: триллер, драма
    Главный режиссер: Дэвид Кепп / David Koepp
    Актеры: Кайл МакЛоклен (Matthew), Элизабет Шу (Annie Kay), Дермот Малруни (Joe), Ричард Т. Джонс (Raymond), Билл Смитрович (Steph), Майкл Рукер (Gary), Тори Кристиансен (Sarah), Тайра Кристиансен (Sarah), Рик Уорси (Johnny), Edhem Barker (Trendy German Guy), Tyrone Tann (Tripping Guy), Дэвид О’Доннелл (Hand Holding Guy)

    Сюжет фильма:
    Размеренный быт жителей маленького американского городка нарушен. Загадочным образом его обитатели оказываются полностью лишенными электроэнергии, радио и телефонной связи. Постепенно отношения между ними сводятся к схеме человек человеку — волк.

    В создавшейся критической ситуации, ради спасения жизней ребенка и жены, обычный тихий американец способен на многое…



    Снималось в: США
    Киностудия: Amblin Entertainment, Gramercy Pictures, Universal Pictures
    Время просмотра: 01:34:44
    Перевод текста: Профессиональный (многоголосый, закадровый)

    Файл
    Кодек для видео: XviD / MP3
    Качество фильма: DVDRip
    Информация о видео: 672x368 (1.83:1), 23.976 fps, XviD build 50 ~962 kbps avg, 0.16 bit/pixel
    Информация о звуке: 48 kHz, MPEG Layer 3, 2 ch, ~128.00 kbps avg

    Скриншоты для ознакомления
    Screenshot
    MediaInfo
    General
    Complete name : /Эффект спускового курка.1996.DVDRip.avi
    Format : AVI
    Format/Info : Audio Video Interleave
    File size : 745 MiB
    Duration : 1h 34mn
    Overall bit rate : 1 100 Kbps
    Writing application : VirtualDubMod 1.5.10.3 | www.virtualdub-fr.org || (build 2550/release)
    Writing library : VirtualDubMod build 2550/release

    Video
    ID : 0
    Format : MPEG-4 Visual
    Format profile : Advanced Simple@L5
    Format settings, BVOP : 1
    Format settings, QPel : No
    Format settings, GMC : No warppoints
    Format settings, Matrix : Custom
    Codec ID : XVID
    Codec ID/Hint : XviD
    Duration : 1h 34mn
    Bit rate : 963 Kbps
    Width : 672 pixels
    Height : 368 pixels
    Display aspect ratio : 1.85:1
    Frame rate : 23.976 fps
    Color space : YUV
    Chroma subsampling : 4:2:0
    Bit depth : 8 bits
    Scan type : Progressive
    Compression mode : Lossy
    Bits/(Pixel*Frame) : 0.162
    Stream size : 652 MiB (88%)
    Writing library : XviD 1.2.1 (UTC 2008-12-04)

    Audio
    ID : 1
    Format : MPEG Audio
    Format version : Version 1
    Format profile : Layer 3
    Codec ID : 55
    Codec ID/Hint : MP3
    Duration : 1h 34mn
    Bit rate mode : Constant
    Bit rate : 128 Kbps
    Channel(s) : 2 channels
    Sampling rate : 48.0 KHz
    Compression mode : Lossy
    Stream size : 86.7 MiB (12%)
    Alignment : Aligned on interleaves
    Interleave, duration : 42 ms (1.00 video frame)
    Interleave, preload duration : 504 ms
    Writing library : LAME3.98r
    Encoding settings : -m s -V 4 -q 2 -lowpass 17 -b 128

    Размер скачиваемого торрента: 745.48 MB (781688832 Bytes)

    Эффект спускового курка / The Trigger Effect (1996) DVDRip | P торрент скачать бесплатно
    загрузка...
    Рейтинг →
     (голосов: 1, оценка 3/5, голосовать можно 1 раз )

    Другие торренты по теме:

  • Эффект спускового курка / The Trigger Effect (1996) DVDRip | P, P2


    • Комментарии (0):

      Информация

      Информация

        Посетители, находящиеся в группе Гости, не могут оставлять комментарии в данной новости.

        ↓ Меню



        ↓ Опрос

        А Вы добавили сайт в закладки?
        Да
        Не


        Top 10 за месяц (Фильмы)