.
Авторизация | Регистрация
Хочешь лучшие торренты? Добавь свой email!
Добавить
» » Королевская свадьба / Royal Wedding / Wedding Bells (1951) DVDRip-AVC | P2 скачать торрент бесплатно




    Королевская свадьба / Royal Wedding / Wedding Bells (1951) DVDRip-AVC | P2 скачать торрент бесплатно

    Опубликовал: Админ | Дата: 27-02-2015, 11:09 | Просмотров: 443

    Королевская свадьба / Royal Wedding (Wedding Bells)

    Русское название: Королевская свадьба
    Русское название в мировом прокате: Royal Wedding (Wedding Bells)
    Создали в: 1951
    Категория жанра: Мюзикл, мелодрама, комедия


    Главный режиссер: Стэнли Донен

    Актеры: Фред Астер, Джейн Пауэлл, Питер Лоуфорд, Сара Черчилль, Кинен Уинн, Альберт Шарп, Беа Аллен, Уилсон Бендж, Маргарет Берт, Френсис Бетенкур


    Сюжет фильма:
    Близится великий день - принцесса Елизавета выходит замуж, а значит, предстоят тяжелые деньки. Придется много веселиться, пить и петь, танцевать и вкушать разнообразные яства - короче очень тяжелые деньки ожидают героев этого фильма, брата и сестричку, роли которых исполняют великие Фред Астер и Джейн Пауэлл. Никто не знает своего будущего. Вот и брат не знает, что его ждет любовь к танцовщице, а сестра влюбится в самого лорда.





    Снималось в: США, Metro-Goldwyn-Mayer
    Время просмотра: 01:33:03
    Перевод текста: Профессиональный двухголосый


    Качество фильма: DVDRip-AVC
    Информация о видео: MPEG-4 AVC, 2700 Кбит/с, 720x480@720x540
    Информация о звуке 1: Русский (AC3, 2 ch, 192 Кбит/с) - Профессиональный двухголосый (закадровый) - ГТРК Культура
    Информация о звуке 2: Русский (AC3, 2 ch, 192 Кбит/с) - Профессиональный двухголосый (закадровый) - НТВ по заказу НТВ
    Информация о звуке 3: Русский (AC3, 2 ch, 192 Кбит/с) - Профессиональный двухголосый (закадровый) - ООО Светла (внешним файлом)
    Информация о звуке 4: Русский (AC3, 2 ch, 192 Кбит/с) - Профессиональный двухголосый (закадровый) - DVD Magic
    Информация о звуке 5: Английский (AC3, 1 ch, 192 Кбит/с) - Оригинал
    Субтитры: Английские


    Скриншоты для ознакомления




    MediaInfo
    Общее
    Полное имя : E:Royal.Wedding.1951.DVDRip.x264-Bi6f00t.mkv
    Формат : Matroska
    Версия формата : Version 2
    Размер файла : 2,38 Гбайт
    Продолжительность : 1 ч. 33 м.
    Общий поток : 3663 Кбит/сек
    Название фильма : Royal Wedding 1951 rip by Bi6f00t
    Дата кодирования : UTC 2014-01-13 09:51:32
    Программа кодирования : mkvmerge v6.7.0 (;Back to the Ground;) 32bit built on Jan 8 2014 15:03:17
    Библиотека кодирования : libebml v1.3.0 libmatroska v1.4.1

    Видео
    Идентификатор : 1
    Формат : AVC
    Формат/Информация : Advanced Video Codec
    Профиль формата : High@L3.1
    Параметр CABAC формата : Да
    Параметр ReFrames формата : 11 кадров
    Идентификатор кодека : V_MPEG4/ISO/AVC
    Продолжительность : 1 ч. 33 м.
    Битрейт : 2700 Кбит/сек
    Ширина : 720 пикселей
    Высота : 480 пикселей
    Соотношение сторон : 4:3
    Режим частоты кадров : Постоянный
    Частота кадров : 23,976 кадра/сек
    Стандарт вещания : NTSC
    Цветовое пространство : YUV
    Субдискретизация насыщенности : 4:2:0
    Битовая глубина : 8 бит
    Тип развёртки : Прогрессивная
    Бит/(Пиксели*Кадры) : 0.326
    Размер потока : 1,71 Гбайт (72%)
    Заголовок : Rip by Bi6f00t
    Библиотека кодирования : x264 core 125 r2208 d9d2288
    Настройки программы : cabac=1 / ref=11 / deblock=1:-2:-1 / analyse=0x3:0x133 / me=umh / subme=10 / psy=1 / psy_rd=1.00:0.20 / mixed_ref=1 / me_range=24 / chroma_me=1 / trellis=2 / 8x8dct=1 / cqm=0 / deadzone=21,11 / fast_pskip=0 / chroma_qp_offset=-3 / threads=2 / lookahead_threads=1 / sliced_threads=0 / nr=0 / decimate=0 / interlaced=0 / bluray_compat=0 / constrained_intra=0 / bframes=4 / b_pyramid=2 / b_adapt=2 / b_bias=0 / direct=3 / weightb=1 / open_gop=0 / weightp=2 / keyint=240 / keyint_min=23 / scenecut=40 / intra_refresh=0 / rc_lookahead=60 / rc=2pass / mbtree=1 / bitrate=2700 / ratetol=1.0 / qcomp=0.60 / qpmin=0 / qpmax=69 / qpstep=4 / cplxblur=20.0 / qblur=0.5 / ip_ratio=1.40 / aq=1:1.00
    Язык : English
    Default : Да
    Forced : Нет

    Аудио #1
    Идентификатор : 2
    Формат : AC-3
    Формат/Информация : Audio Coding 3
    Расширение режима : CM (complete main)
    Параметр Endianness формата : Big
    Идентификатор кодека : A_AC3
    Продолжительность : 1 ч. 33 м.
    Вид битрейта : Постоянный
    Битрейт : 192 Кбит/сек
    Каналы : 2 канала
    Расположение каналов : Front: L R
    Частота : 48,0 КГц
    Битовая глубина : 16 бит
    Метод сжатия : С потерями
    Размер потока : 128 Мбайт (5%)
    Заголовок : Kultura
    Язык : Russian
    Default : Да
    Forced : Нет

    Аудио #2
    Идентификатор : 3
    Формат : AC-3
    Формат/Информация : Audio Coding 3
    Расширение режима : CM (complete main)
    Параметр Endianness формата : Big
    Идентификатор кодека : A_AC3
    Продолжительность : 1 ч. 33 м.
    Вид битрейта : Постоянный
    Битрейт : 192 Кбит/сек
    Каналы : 2 канала
    Расположение каналов : Front: L R
    Частота : 48,0 КГц
    Битовая глубина : 16 бит
    Метод сжатия : С потерями
    Размер потока : 128 Мбайт (5%)
    Заголовок : NTV
    Язык : Russian
    Default : Нет
    Forced : Нет

    Аудио #3
    Идентификатор : 4
    Формат : AC-3
    Формат/Информация : Audio Coding 3
    Расширение режима : CM (complete main)
    Параметр Endianness формата : Big
    Идентификатор кодека : A_AC3
    Продолжительность : 1 ч. 33 м.
    Вид битрейта : Постоянный
    Битрейт : 192 Кбит/сек
    Каналы : 2 канала
    Расположение каналов : Front: L R
    Частота : 48,0 КГц
    Битовая глубина : 16 бит
    Метод сжатия : С потерями
    Размер потока : 128 Мбайт (5%)
    Заголовок : Svetla
    Язык : Russian
    Default : Нет
    Forced : Нет

    Аудио #4
    Идентификатор : 5
    Формат : AC-3
    Формат/Информация : Audio Coding 3
    Расширение режима : CM (complete main)
    Параметр Endianness формата : Big
    Идентификатор кодека : A_AC3
    Продолжительность : 1 ч. 33 м.
    Вид битрейта : Постоянный
    Битрейт : 192 Кбит/сек
    Каналы : 2 канала
    Расположение каналов : Front: L R
    Частота : 48,0 КГц
    Битовая глубина : 16 бит
    Метод сжатия : С потерями
    Размер потока : 128 Мбайт (5%)
    Заголовок : DVD Magic
    Язык : Russian
    Default : Нет
    Forced : Нет

    Аудио #5
    Идентификатор : 6
    Формат : AC-3
    Формат/Информация : Audio Coding 3
    Расширение режима : CM (complete main)
    Параметр Endianness формата : Big
    Идентификатор кодека : A_AC3
    Продолжительность : 1 ч. 33 м.
    Вид битрейта : Постоянный
    Битрейт : 192 Кбит/сек
    Каналы : 1 канал
    Расположение каналов : Front: C
    Частота : 48,0 КГц
    Битовая глубина : 16 бит
    Метод сжатия : С потерями
    Размер потока : 128 Мбайт (5%)
    Заголовок : Original
    Язык : English
    Default : Нет
    Forced : Нет

    Текст
    Идентификатор : 7
    Формат : UTF-8
    Идентификатор кодека : S_TEXT/UTF8
    Идентификатор кодека/Информация : UTF-8 Plain Text
    Язык : English
    Default : Нет
    Forced : Нет

    Меню
    00:00:00.000 : en:Chapter 1
    00:01:20.801 : en:Chapter 2
    00:05:52.912 : en:Chapter 3
    00:10:30.228 : en:Chapter 4
    00:13:02.851 : en:Chapter 5
    00:16:24.891 : en:Chapter 6
    00:20:38.851 : en:Chapter 7
    00:25:59.145 : en:Chapter 8
    00:30:20.912 : en:Chapter 9
    00:32:57.572 : en:Chapter 10
    00:35:30.061 : en:Chapter 11
    00:39:12.455 : en:Chapter 12
    00:42:28.688 : en:Chapter 13
    00:44:16.265 : en:Chapter 14
    00:47:11.944 : en:Chapter 15
    00:50:17.133 : en:Chapter 16
    00:57:02.414 : en:Chapter 17
    01:01:31.489 : en:Chapter 18
    01:03:56.971 : en:Chapter 19
    01:06:27.291 : en:Chapter 20
    01:09:42.857 : en:Chapter 21
    01:14:36.791 : en:Chapter 22
    01:16:57.602 : en:Chapter 23
    01:20:58.014 : en:Chapter 24
    01:26:38.195 : en:Chapter 25
    01:28:21.300 : en:Chapter 26
    01:31:13.176 : en:Chapter 27

    Размер скачиваемого торрента: 2.38 GB (2556612295 Bytes)

    Королевская свадьба / Royal Wedding / Wedding Bells (1951) DVDRip-AVC | P2 торрент скачать бесплатно
    загрузка...
    Рейтинг →
     (голосов: 1, оценка 5/5, голосовать можно 1 раз )

    Другие торренты по теме:

  • Королевская свадьба / Royal Wedding (Wedding Bells) (1951) DVDRip скачать через торрент бесплатно
  • Королевская свадьба / Royal Wedding / Wedding Bells (1951) DVDRip | P2 скачать через торрент бесплатно


    • Комментарии (0):

      Информация

      Информация

        Посетители, находящиеся в группе Гости, не могут оставлять комментарии в данной новости.

        ↓ Меню



        ↓ Опрос

        А Вы добавили сайт в закладки?
        Да
        Не


        Top 10 за месяц (Фильмы)