.
Авторизация | Регистрация
Хочешь лучшие торренты? Добавь свой email!
Добавить
» » Ровно в полдень / High Noon (1952) BDRip by msltel | P скачать торрент бесплатно




    Ровно в полдень / High Noon (1952) BDRip by msltel | P скачать торрент бесплатно

    Опубликовал: Админ | Дата: 27-02-2015, 11:09 | Просмотров: 393



    Русское название: Ровно в полдень
    Русское название в мировом прокате: High Noon
    Создали в: 1952
    Категория жанра: Драма, вестерн
    Снималось в: США, Stanley Kramer Productions
    Главный режиссер: Фред Циннеман
    Актеры: Гэри Купер, Грэйс Келли, Томас Митчелл, Ллойд Бриджес, Кэти Хурадо, Отто Крюгер, Лон Чейни мл., Гарри Морган, Йен МакДональд, Ив МакВиг, Морган Фарли, Гарри Шэннон, Ли Ван Клиф, Роберт Дж. Уилки, Шеб Вули, Хоуланд Чемберлен, Люсьен Приваль

    Сюжет фильма: Только что поженившись, Уилл и его прекрасная блондинка-квакерша Эми собираются навсегда покинуть городок, намереваясь оставить в прошлом опасную работу и обзавестись собственным ранчо, чтобы пустить корни. Однако в городке узнают, что свирепый убийца Фрэнк Миллер должен очень скоро приехать в Хэдливиль и отомстить Уиллу и всему городу за то, что они засадили его в тюрьму несколько лет тому назад. Брат Миллера и ещё два бандита-ганфайтера уже ждут поезд, на котором едет Миллер, а поезд должен прийти ровно в полдень. В минуту паники, по совету друзей, Уилл покидает город вместе с невестой и скачет по дороге в открытые прерии, но внезапно останавливает коня...

    Качество фильма: BDRip
    Размер скачиваемого торрента: 1.71 ГБ
    Время просмотра: 01:25:07

    Информация о видео: XviD, 1897 Кбит/с, 720x528
    Информация о звуке 1: русский, 48 kHz, AC3, 2 ch, 192 kbps avg, Профессиональный многоголосый, ОРТ
    Информация о звуке 2: русский, 48 kHz, AC3, 2 ch, 192 kbps avg, Профессиональный двухголосый, New Dream Nedia

    Внешние файлы
    Информация о звуке: русский, 48 kHz, AC3, 1 ch, 192 kbps avg, Авторский, Сергей Кузнецов
    Информация о звуке: русский, 48 kHz, AC3, 2 ch, 192 kbps avg, Авторский, Пётр Карцев
    Информация о звуке: английский, 48 kHz, AC3, 1 ch, 192 kbps avg, Оригинал

    Исходник: Тарантиныч (Рутрекер

    Сравнение с исходником



    Награды
    Оскар, 1953 год
    Победитель (4):
    Лучшая мужская роль (Гэри Купер)
    Лучший монтаж
    Лучшая песня — High Noon (Do Not Forsake Me, Oh My Darlin;)
    Лучший саундтрек для драматических/комедийных картин

    Номинации (3):
    Лучший фильм
    Лучший режиссер (Фред Циннеман)
    Лучший адаптированный сценарий

    Золотой глобус, 1953 год
    Победитель (4):
    Лучшая мужская роль (драма) (Гэри Купер)
    Лучший саундтрек
    Лучшая женская роль второго плана (Кэти Хурадо)
    Лучшая работа оператора (ч/б фильмы)

    Номинации (3):
    Лучший фильм (драма)
    Лучший сценарий
    Самый многообещающий новичок среди женщин (Кэти Хурадо)
    MediaInfo
    Общее
    Полное имя : E:VideoRovno v polden.1952.XviD.BDRipRovno v polden.1952.AVO.rus.П.Карцев.ac3
    Формат : AC-3
    Формат/Информация : Audio Coding 3
    Размер файла : 117 Мбайт
    Продолжительность : 1 ч. 25 м.
    Режим общего битрейта : Постоянный
    Общий поток : 192 Кбит/сек

    Аудио
    Формат : AC-3
    Формат/Информация : Audio Coding 3
    Расширение режима : CM (complete main)
    Параметр Endianness формата : Big
    Продолжительность : 1 ч. 25 м.
    Вид битрейта : Постоянный
    Битрейт : 192 Кбит/сек
    Каналы : 2 канала
    Расположение каналов : Front: L R
    Частота : 48,0 КГц
    Битовая глубина : 16 бит
    Метод сжатия : С потерями
    Размер потока : 117 Мбайт (100%)

    Общее
    Полное имя : E:VideoRovno v polden.1952.XviD.BDRipRovno v polden.1952.AVO.rus.С.Кузнецов.ac3
    Формат : AC-3
    Формат/Информация : Audio Coding 3
    Размер файла : 117 Мбайт
    Продолжительность : 1 ч. 25 м.
    Режим общего битрейта : Постоянный
    Общий поток : 192 Кбит/сек

    Аудио
    Формат : AC-3
    Формат/Информация : Audio Coding 3
    Расширение режима : CM (complete main)
    Параметр Endianness формата : Big
    Продолжительность : 1 ч. 25 м.
    Вид битрейта : Постоянный
    Битрейт : 192 Кбит/сек
    Каналы : 1 канал
    Расположение каналов : Front: C
    Частота : 48,0 КГц
    Битовая глубина : 16 бит
    Метод сжатия : С потерями
    Размер потока : 117 Мбайт (100%)

    Общее
    Полное имя : E:VideoRovno v polden.1952.XviD.BDRipRovno v polden.1952.Original.eng.ac3
    Формат : AC-3
    Формат/Информация : Audio Coding 3
    Размер файла : 117 Мбайт
    Продолжительность : 1 ч. 25 м.
    Режим общего битрейта : Постоянный
    Общий поток : 192 Кбит/сек

    Аудио
    Формат : AC-3
    Формат/Информация : Audio Coding 3
    Расширение режима : CM (complete main)
    Параметр Endianness формата : Big
    Продолжительность : 1 ч. 25 м.
    Вид битрейта : Постоянный
    Битрейт : 192 Кбит/сек
    Каналы : 1 канал
    Расположение каналов : Front: C
    Частота : 48,0 КГц
    Битовая глубина : 16 бит
    Метод сжатия : С потерями
    Размер потока : 117 Мбайт (100%)

    Общее
    Полное имя : E:VideoRovno v polden.1952.XviD.BDRipRovno v polden.1952.XviD.BDRip.avi
    Формат : AVI
    Формат/Информация : Audio Video Interleave
    Размер файла : 1,36 Гбайт
    Продолжительность : 1 ч. 25 м.
    Общий поток : 2296 Кбит/сек
    Программа кодирования : VirtualDubMod 1.5.10.2 (build 2540/release)
    Библиотека кодирования : VirtualDubMod build 2540/release

    Видео
    Идентификатор : 0
    Формат : MPEG-4 Visual
    Профиль формата : Advanced Simple@L5
    Параметр BVOP формата : 1
    Параметр QPel формата : Нет
    Параметр GMC формата : Без точки перехода
    Параметр матрицы формата : Default (H.263)
    Режим смешивания : Сжатый битовый поток
    Идентификатор кодека : XVID
    Идентификатор кодека/Подсказка : XviD
    Продолжительность : 1 ч. 25 м.
    Битрейт : 1897 Кбит/сек
    Ширина : 720 пикселей
    Высота : 528 пикселей
    Соотношение сторон : 4:3
    Частота кадров : 23,976 кадра/сек
    Цветовое пространство : YUV
    Субдискретизация насыщенности : 4:2:0
    Битовая глубина : 8 бит
    Тип развёртки : Прогрессивная
    Метод сжатия : С потерями
    Бит/(Пиксели*Кадры) : 0.208
    Размер потока : 1,13 Гбайт (83%)
    Библиотека кодирования : XviD 1.2.1 (UTC 2008-12-04)

    Аудио #1
    Идентификатор : 1
    Формат : AC-3
    Формат/Информация : Audio Coding 3
    Расширение режима : CM (complete main)
    Параметр Endianness формата : Big
    Идентификатор кодека : 2000
    Продолжительность : 1 ч. 25 м.
    Вид битрейта : Постоянный
    Битрейт : 192 Кбит/сек
    Каналы : 2 канала
    Расположение каналов : Front: L R
    Частота : 48,0 КГц
    Битовая глубина : 16 бит
    Метод сжатия : С потерями
    Размер потока : 117 Мбайт (8%)
    Выравнивание : Разделение по промежуткам
    Продолжительность промежутка : 42 мс. (1,00 видеокадр)
    Время предзагрузки промежутка : 500 мс.

    Аудио #2
    Идентификатор : 2
    Формат : AC-3
    Формат/Информация : Audio Coding 3
    Расширение режима : CM (complete main)
    Параметр Endianness формата : Big
    Идентификатор кодека : 2000
    Продолжительность : 1 ч. 25 м.
    Вид битрейта : Постоянный
    Битрейт : 192 Кбит/сек
    Каналы : 2 канала
    Расположение каналов : Front: L R
    Частота : 48,0 КГц
    Битовая глубина : 16 бит
    Метод сжатия : С потерями
    Размер потока : 117 Мбайт (8%)
    Выравнивание : Разделение по промежуткам
    Продолжительность промежутка : 42 мс. (1,00 видеокадр)
    Время предзагрузки промежутка : 500 мс.
    Скриншоты для ознакомления



    Залил: msltel
    Размер скачиваемого торрента: 1.71 GB (1833220352 Bytes)

    Ровно в полдень / High Noon (1952) BDRip by msltel | P торрент скачать бесплатно
    загрузка...
    Рейтинг →
     (голосов: 1, оценка 3/5, голосовать можно 1 раз )

    Другие торренты по теме:

  • Ровно в полдень / High Noon (2000) TVRip
  • National Geographic: Дикий Запад. Ровно в полдень / National Geographic: The Wild West. High Noon (2012) HDTVRip -AVC от Тorrent-Хzona
  • Тамара Крюкова - Ровно в полночь по картонным часам (2011) MP3
  • Ровно в полдень / High Noon (1952) BDRip 720p by msltel | P
  • Ровно в полдень / High Noon (1952) BDRip 1080p by msltel | P скачать через торрент бесплатно
  • Ровно в полдень / High Noon / 1952 / ПМ, АП (Карцев, Кузнецов) / BDRip (AVC)
  • Уильям Айриш - Ровно в три часа (2017) MP3


    • Комментарии (0):

      Информация

      Информация

        Посетители, находящиеся в группе Гости, не могут оставлять комментарии в данной новости.

        ↓ Меню



        ↓ Опрос

        А Вы добавили сайт в закладки?
        Да
        Не


        Top 10 за месяц (Фильмы)