.
Авторизация | Регистрация
Хочешь лучшие торренты? Добавь свой email!
Добавить
» » Телекинез / Carrie (2013) HDRip от Deadmauvlad | Чистый звук скачать торрент бесплатно




    Телекинез / Carrie (2013) HDRip от Deadmauvlad | Чистый звук скачать торрент бесплатно

    Опубликовал: Админ | Дата: 27-02-2015, 11:09 | Просмотров: 262


    Детально о кино
    Русское название: Телекинез
    Русское название в мировом прокате: Carrie
    Создали в: 2013
    Категория жанра: ужасы, драма
    Главный режиссер: Кимберли Пирс
    Актеры: Хлоя Грейс Морец, Джулианна Мур, Габриэлла Уайлд, Портия Даблдэй, Алекс Расселл, Зои Белкин, Энсел Эльгорт, Саманта Вайнштейн, Карисса Стрэйн, Джуди Грир

    Сюжет фильма: Невзрачная старшеклассница по имени Кэрри с рождения обладает способностями телекинеза. Давление со стороны фанатично религиозной мамочки и постоянные издевки сверстников лишь способствует развитию ее сверхъестественных способностей. На выпускном одноклассники решают жестоко подшутить над ней, что приводит к фатальным последствиям.



    Снималось в: США / Metro-Goldwyn-Mayer (MGM), Screen Gems
    Время просмотра: 01:40:56
    Тип перевода: Дублированное Чистый звук

    Файл
    Тип видео: AVI (XviD)
    Качество фильма: HDRip Рип с BDRip 720p
    Информация о видео: 720x304 (2.37:1), 23.976 fps, XviD build 73 ~883 kbps avg, 0.17 bit/pixel
    Информация о звуке: AC3, 128 kb/s (2 ch)
    Semple
    Скрины

    MI
    Общее
    Полное имя : D:Рипы выкладка DeadmauvladРипы готовыеTelekinez.2013.HDRip.D.Deadmauvlad.avi
    Формат : AVI
    Формат/Информация : Audio Video Interleave
    Размер файла : 737 Мбайт
    Продолжительность : 1 ч. 40 м.
    Общий поток : 1021 Кбит/сек
    Название фильма : Telekinez.2013.HDRip.D.Deadmauvlad
    Режиссёр : Deadmauvlad
    Жанр : Ужасы, Драма
    Программа кодирования : VirtualDubMod 1.5.10.3 | www.virtualdub-fr.org || (build 2550/release)
    Формат оригинала/Имя : Фильм
    Правообладатель : Goldenshara

    Видео
    Идентификатор : 0
    Формат : MPEG-4 Visual
    Профиль формата : Advanced Simple@L5
    Параметр BVOP формата : 1
    Параметр QPel формата : Да
    Параметр GMC формата : Без точки перехода
    Параметр матрицы формата : Default (MPEG)
    Идентификатор кодека : XVID
    Идентификатор кодека/Подсказка : XviD
    Продолжительность : 1 ч. 40 м.
    Битрейт : 883 Кбит/сек
    Ширина : 720 пикселей
    Высота : 304 пикселя
    Соотношение сторон : 2,35:1
    Частота кадров : 23,976 кадра/сек
    Цветовое пространство : YUV
    Субдискретизация насыщенности : 4:2:0
    Битовая глубина : 8 бит
    Тип развёртки : Прогрессивная
    Метод сжатия : С потерями
    Бит/(Пиксели*Кадры) : 0.168
    Размер потока : 638 Мбайт (87%)
    Библиотека кодирования : XviD 73

    Аудио
    Идентификатор : 1
    Формат : AC-3
    Формат/Информация : Audio Coding 3
    Расширение режима : CM (complete main)
    Параметр Endianness формата : Big
    Идентификатор кодека : 2000
    Продолжительность : 1 ч. 40 м.
    Вид битрейта : Постоянный
    Битрейт : 128 Кбит/сек
    Каналы : 2 канала
    Расположение каналов : Front: L R
    Частота : 48,0 КГц
    Битовая глубина : 16 бит
    Метод сжатия : С потерями
    Размер потока : 92,4 Мбайт (13%)
    Выравнивание : Соединение по промежуткам
    Продолжительность промежутка : 42 мс. (1,00 видеокадр)
    Время предзагрузки промежутка : 512 мс.

    Rip Deadmauvlad
    Залил: DJ_V.K_TV
    Размер скачиваемого торрента: 736.81 MB (772606384 Bytes)

    Телекинез / Carrie (2013) HDRip от Deadmauvlad | Чистый звук торрент скачать бесплатно
    загрузка...
    Рейтинг →
     (голосов: 1, оценка 5/5, голосовать можно 1 раз )

    Другие торренты по теме:

  • Телекинез / Carrie (2013) HD 1080p | Трейлер
  • Телекинез / Carrie (2013) CAMRip от INTERCINEMA | L1
  • OST - Телекинез / Carrie (2013) MP3
  • Телекинез / Carrie (2013) CAMRip скачать через торрент бесплатно
  • Телекинез / Carrie (2013) BDRip 720p | Звук с CAMRip скачать через торрент бесплатно
  • Телекинез / Carrie (2013) HDRip | Звук с CAMRip скачать через торрент бесплатно
  • Телекинез / Carrie (2013) HDRip | L1
  • Телекинез / Carrie (2013) BDRip 1080p | Чистый звук скачать через торрент бесплатно


    • Комментарии (0):

      Информация

      Информация

        Посетители, находящиеся в группе Гости, не могут оставлять комментарии в данной новости.

        ↓ Меню



        ↓ Опрос

        А Вы добавили сайт в закладки?
        Да
        Не


        Top 10 за месяц (Фильмы)