.
Авторизация | Регистрация
Хочешь лучшие торренты? Добавь свой email!
Добавить
» » Щупальца / Octopus (2000) DVDRip | P2 скачать через торрент бесплатно




    Щупальца / Octopus (2000) DVDRip | P2 скачать через торрент бесплатно

    Опубликовал: Админ | Дата: 27-02-2015, 11:09 | Просмотров: 767



    Детально о кино
    Русское название: Щупальца
    Русское название в мировом прокате: Octopus
    Создали в: 2000
    Категория жанра: ужасы, приключения
    Главный режиссер: Джон Эйрс
    Актеры: Джей Хэррингтон, Равиль Исянов, Дэвид Бикрофт, Кэролин Лоури, Рикко Росс, Джеф Нэттал, Джордж Станчев, Мартин МакДугалл, Василь Банов, Николай Урумов

    Сюжет фильма:
    Пересекая Атлантический океан, субмарина оказывается в загадочном месте, где в 1962 году бесследно исчезла русская атомная подводная лодка. Страшная история повторяется вновь. Неведомая сила атакует подводный корабль и тянет его ко дну.

    Но наконец чудовищная загадка разрешена. Темные воды таят гигантского монстра — спрута. Изголодавшееся чудовище покинуло океанские глубины в поисках добычи. Безумная паника перед неминуемой смертью охватила несчастный экипаж, не надеющийся на спасение.



    Снималось в: США
    Киностудия: Nu Image Films, Martien Holdings A.V.V.
    Время просмотра: 01:31:57
    Перевод текста: Профессиональный (двухголосый закадровый)

    Файл
    Кодек для видео: DivX
    Качество фильма: DVDRip
    Информация о видео: 512x400 (1.280), 25.000 fps, 897 kbps
    Информация о звуке: MP3, 2 ch, 48.0 kHz, 128 kbps, CBR
    Субтитры: нет

    SAMPLE

    Релиз подготовил: vamosss

    MediaInfo
    Общее
    Полное имя : Щупальца (Octopus).2000.DVDRip.2ch.avi
    Формат : AVI
    Формат/Информация : Audio Video Interleave
    Размер файла : 680 Мбайт
    Продолжительность : 1 ч. 31 м.
    Общий поток : 1035 Кбит/сек
    Библиотека кодирования : VirtualDub build 12667/release

    Видео
    Идентификатор : 0
    Формат : MPEG-4 Visual
    Идентификатор кодека : DIV3
    Идентификатор кодека/Подсказка : DivX 3 Low
    Продолжительность : 1 ч. 31 м.
    Битрейт : 897 Кбит/сек
    Ширина : 512 пикселей
    Высота : 400 пикселей
    Соотношение сторон : 1,280
    Частота кадров : 25,000 кадров/сек
    Цветовое пространство : YUV
    Субдискретизация насыщенности : 4:2:0
    Битовая глубина : 8 бит
    Метод сжатия : С потерями
    Бит/(Пиксели*Кадры) : 0.175
    Размер потока : 590 Мбайт (87%)

    Аудио
    Идентификатор : 1
    Формат : MPEG Audio
    Версия формата : Version 1
    Профиль формата : Layer 3
    Режим : Joint stereo
    Расширение режима : MS Stereo
    Идентификатор кодека : 55
    Идентификатор кодека/Подсказка : MP3
    Продолжительность : 1 ч. 31 м.
    Вид битрейта : Постоянный
    Битрейт : 128 Кбит/сек
    Каналы : 2 канала
    Частота : 48,0 КГц
    Метод сжатия : С потерями
    Размер потока : 84,2 Мбайт (12%)
    Выравнивание : Разделение по промежуткам
    Продолжительность промежутка : 40 мс. (1,00 видеокадр)
    Время предзагрузки промежутка : 500 мс.
    Скриншоты для ознакомления

    Размер скачиваемого торрента: 680.38 MB (713426944 Bytes)

    Щупальца / Octopus (2000) DVDRip | P2 скачать через торрент бесплатно
    загрузка...
    Рейтинг →
     (голосов: 1, оценка 3/5, голосовать можно 1 раз )

    Другие торренты по теме:

  • Щупальца 2 / Octopus 2: River of Fear (2001) DVDRip | P2
  • Бермудские щупальца / Bermuda Tentacles (2014) SATRip скачать через торрент бесплатно
  • Бермудские щупальца / Bermuda Tentacles скачать через торрент бесплатно


    • Комментарии (0):

      Информация

      Информация

        Посетители, находящиеся в группе Гости, не могут оставлять комментарии в данной новости.

        ↓ Меню



        ↓ Опрос

        А Вы добавили сайт в закладки?
        Да
        Не


        Top 10 за месяц (Фильмы)