.
Авторизация | Регистрация
Хочешь лучшие торренты? Добавь свой email!
Добавить
» » Роман с камнем / Romancing the Stone (1984) BDRemux 1080p от New-Team | D скачать торрент бесплатно




    Роман с камнем / Romancing the Stone (1984) BDRemux 1080p от New-Team | D скачать торрент бесплатно

    Опубликовал: Админ | Дата: 27-02-2015, 11:09 | Просмотров: 302

    She;s a girl from the big city. He;s a reckless soldier of fortune. For a fabulous treasure, they share an adventure no one could imagine... or survive


    Снималось в: Мексика, США / 20th Century Fox Film Corporation, El Corazon Producciones S.A., Nina Saxon Film Design
    Категория жанра: боевик, мелодрама, комедия, приключения
    Создали в: 1984
    Время просмотра: 01:45:46

    Перевод текста:
    Профессиональный (дублированный) - Дубляжная группа киностудии имени М. Горького;
    Профессиональный (многоголосый, закадровый): ОРТ, Киномания, Позитив;
    Авторский (одноголосый): Гаврилов, Горчаков, Володарский

    Субтитры подготовлены: русский (форсированный плюс 2 варианта полных), английский
    Оригинальная аудиодорожка: английский

    Главный режиссер: Роберт Земекис / Robert Zemeckis

    Актеры: Майкл Дуглас, Кэтлин Тёрнер, Дэнни ДеВито, Зак Норман, Альфонсо Арау, Мануэль Охеда, Холланд Тейлор, Мэри Эллен Трейнор, Ив Смит, Джо Несноу...

    Роли дублировали: Сергей Сазонтьев, Анна Каменкова, Михаил Кононов, Герман Качин, Владимир Ферапонтов...

    Сюжет: Джоан Уайлдер, автор популярных женских романов, находит в своем почтовом ящике пакет, присланный из Колумбии ее сестрой. Телефонный звонок подтверждает самые страшные опасения — сестра похищена, и похитители требуют вернуть пакет.
    Забыв обо всем на свете, Джоан летит на помощь сестре и теряется в первые часы после прилета. Ее пытаются убить, и только вмешательство Джека Колтона, американского наемника, спасет девушку от гибели.
    Вместе их ждут экстремальные приключения в джунглях, поиск сокровищ и, конечно, романтическая любовная история.




    Качество фильма: BDRemux 1080p / Blu-ray 1080p
    Тип видео: MKV

    Информация о видео: 1920x1080, MPEG-4 AVC Video, ~23 Mbps avg 1080p / 23,976 fps / 16:9 / High Profile 4.1
    Информация о звуке 1: 48 kHz, Dolby AC3, 6 ch, 448 kbps, русский дублированный
    Информация о звуке 2: 48 kHz, Dolby AC3, 6 ch, 448 kbps, русский многоголосый ОРТ
    Информация о звуке 3: 48 kHz, Dolby AC3, 6 ch, 448 kbps, русский многоголосый Киномания
    Информация о звуке 4: 48 kHz, Dolby AC3, 2 ch, 192 kbps, русский многоголосый Позитив
    Информация о звуке 5: 48 kHz, Dolby AC3, 2 ch, 192 kbps, русский авторский Гаврилов
    Информация о звуке 6: 48 kHz, Dolby AC3, 2 ch, 192 kbps, русский авторский Горчаков
    Информация о звуке 7: 48 kHz, Dolby AC3, 2 ch, 192 kbps, русский авторский Володарский
    Информация о звуке 8: 48 kHz, Dolby AC3, 2 ch, 256 kbps, украинский многоголосый Новый канал
    Информация о звуке 9: 48 kHz/24-Bit, DTS-HD MA 5.1, ~3 Mbps avg, английский
    Тип видео субтитров: SoftSub (srt)

    Дополнительно: Фильм разбит на главы, как на оригинальном Blu-ray диске

    Раздача от:
    MediaInfo

    Общее
    Полное имя : Roman.s.kamnem.1984.D.BDRemux.1080p.mkv
    Формат : Matroska
    Версия формата : Version 4 / Version 2
    Размер файла : 29,8 Гбайт
    Продолжительность : 1 ч. 45 м.
    Режим общего битрейта : Переменный
    Общий поток : 40,4 Мбит/сек
    Дата кодирования : UTC 2014-01-09 07:51:59
    Программа кодирования : mkvmerge v6.5.0 (;Isn;t she lovely;) built on Oct 20 2013 12:50:05
    Библиотека кодирования : libebml v1.3.0 libmatroska v1.4.1

    Видео
    Идентификатор : 1
    Формат : AVC
    Формат/Информация : Advanced Video Codec
    Профиль формата : High@L4.1
    Параметр CABAC формата : Да
    Параметр ReFrames формата : 4 кадра
    Идентификатор кодека : V_MPEG4/ISO/AVC
    Продолжительность : 1 ч. 45 м.
    Вид битрейта : Переменный
    Максимальный битрейт : 36,0 Мбит/сек
    Ширина : 1920 пикселей
    Высота : 1080 пикселей
    Соотношение сторон : 16:9
    Режим частоты кадров : Постоянный
    Частота кадров : 23,976 кадра/сек
    Цветовое пространство : YUV
    Субдискретизация насыщенности : 4:2:0
    Битовая глубина : 8 бит
    Тип развёртки : Прогрессивная
    Язык : English
    Default : Да
    Forced : Нет
    Основные цвета : BT.709
    Характеристики трансфера : BT.709
    Коэффициенты матрицы : BT.709

    Аудио #1
    Идентификатор : 2
    Формат : AC-3
    Формат/Информация : Audio Coding 3
    Расширение режима : CM (complete main)
    Параметр Endianness формата : Big
    Идентификатор кодека : A_AC3
    Продолжительность : 1 ч. 45 м.
    Вид битрейта : Постоянный
    Битрейт : 448 Кбит/сек
    Каналы : 6 каналов
    Расположение каналов : Front: L C R, Side: L R, LFE
    Частота : 48,0 КГц
    Битовая глубина : 16 бит
    Метод сжатия : С потерями
    Размер потока : 339 Мбайт (1%)
    Заголовок : DUB
    Язык : Russian
    Default : Да
    Forced : Нет

    Аудио #2
    Идентификатор : 3
    Формат : AC-3
    Формат/Информация : Audio Coding 3
    Расширение режима : CM (complete main)
    Параметр Endianness формата : Big
    Идентификатор кодека : A_AC3
    Продолжительность : 1 ч. 45 м.
    Вид битрейта : Постоянный
    Битрейт : 448 Кбит/сек
    Каналы : 6 каналов
    Расположение каналов : Front: L C R, Side: L R, LFE
    Частота : 48,0 КГц
    Битовая глубина : 16 бит
    Метод сжатия : С потерями
    Размер потока : 339 Мбайт (1%)
    Заголовок : MVO.ORT
    Язык : Russian
    Default : Нет
    Forced : Нет

    Аудио #3
    Идентификатор : 4
    Формат : AC-3
    Формат/Информация : Audio Coding 3
    Расширение режима : CM (complete main)
    Параметр Endianness формата : Big
    Идентификатор кодека : A_AC3
    Продолжительность : 1 ч. 45 м.
    Вид битрейта : Постоянный
    Битрейт : 448 Кбит/сек
    Каналы : 6 каналов
    Расположение каналов : Front: L C R, Side: L R, LFE
    Частота : 48,0 КГц
    Битовая глубина : 16 бит
    Метод сжатия : С потерями
    Размер потока : 339 Мбайт (1%)
    Заголовок : MVO.KINOMANIA
    Язык : Russian
    Default : Нет
    Forced : Нет

    Аудио #4
    Идентификатор : 5
    Формат : AC-3
    Формат/Информация : Audio Coding 3
    Расширение режима : CM (complete main)
    Параметр Endianness формата : Big
    Идентификатор кодека : A_AC3
    Продолжительность : 1 ч. 45 м.
    Вид битрейта : Постоянный
    Битрейт : 192 Кбит/сек
    Каналы : 2 канала
    Расположение каналов : Front: L R
    Частота : 48,0 КГц
    Битовая глубина : 16 бит
    Метод сжатия : С потерями
    Размер потока : 145 Мбайт (0%)
    Заголовок : MVO.POZITIV
    Язык : Russian
    Default : Нет
    Forced : Нет

    Аудио #5
    Идентификатор : 6
    Формат : AC-3
    Формат/Информация : Audio Coding 3
    Расширение режима : CM (complete main)
    Параметр Endianness формата : Big
    Идентификатор кодека : A_AC3
    Продолжительность : 1 ч. 45 м.
    Вид битрейта : Постоянный
    Битрейт : 192 Кбит/сек
    Каналы : 2 канала
    Расположение каналов : Front: L R
    Частота : 48,0 КГц
    Битовая глубина : 16 бит
    Метод сжатия : С потерями
    Размер потока : 145 Мбайт (0%)
    Заголовок : AVO.GAVRILOV
    Язык : Russian
    Default : Нет
    Forced : Нет

    Аудио #6
    Идентификатор : 7
    Формат : AC-3
    Формат/Информация : Audio Coding 3
    Расширение режима : CM (complete main)
    Параметр Endianness формата : Big
    Идентификатор кодека : A_AC3
    Продолжительность : 1 ч. 45 м.
    Вид битрейта : Постоянный
    Битрейт : 192 Кбит/сек
    Каналы : 2 канала
    Расположение каналов : Front: L R
    Частота : 48,0 КГц
    Битовая глубина : 16 бит
    Метод сжатия : С потерями
    Размер потока : 145 Мбайт (0%)
    Заголовок : AVO.GORCHAKOV
    Язык : Russian
    Default : Нет
    Forced : Нет

    Аудио #7
    Идентификатор : 8
    Формат : AC-3
    Формат/Информация : Audio Coding 3
    Расширение режима : CM (complete main)
    Параметр Endianness формата : Big
    Идентификатор кодека : A_AC3
    Продолжительность : 1 ч. 45 м.
    Вид битрейта : Постоянный
    Битрейт : 192 Кбит/сек
    Каналы : 2 канала
    Расположение каналов : Front: L R
    Частота : 48,0 КГц
    Битовая глубина : 16 бит
    Метод сжатия : С потерями
    Размер потока : 145 Мбайт (0%)
    Заголовок : AVO.VOLODARSKIY
    Язык : Russian
    Default : Нет
    Forced : Нет

    Аудио #8
    Идентификатор : 9
    Формат : AC-3
    Формат/Информация : Audio Coding 3
    Расширение режима : CM (complete main)
    Параметр Endianness формата : Big
    Идентификатор кодека : A_AC3
    Продолжительность : 1 ч. 45 м.
    Вид битрейта : Постоянный
    Битрейт : 256 Кбит/сек
    Каналы : 2 канала
    Расположение каналов : Front: L R
    Частота : 48,0 КГц
    Битовая глубина : 16 бит
    Метод сжатия : С потерями
    Размер потока : 194 Мбайт (1%)
    Заголовок : MVO.NOVYI.KANAL
    Язык : Ukrainian
    Default : Нет
    Forced : Нет

    Аудио #9
    Идентификатор : 10
    Формат : DTS
    Формат/Информация : Digital Theater Systems
    Профиль формата : MA / Core
    Режим : 16
    Параметр Endianness формата : Big
    Идентификатор кодека : A_DTS
    Продолжительность : 1 ч. 45 м.
    Вид битрейта : Переменный
    Битрейт : Неизвестно / 1509 Кбит/сек
    Каналы : 6 каналов
    Расположение каналов : Front: L C R, Side: L R, LFE
    Частота : 48,0 КГц
    Битовая глубина : 24 бит
    Метод сжатия : Без потерь / Lossy
    Заголовок : DTS.HD.MA
    Язык : English
    Default : Нет
    Forced : Нет

    Текст #1
    Идентификатор : 11
    Формат : UTF-8
    Идентификатор кодека : S_TEXT/UTF8
    Идентификатор кодека/Информация : UTF-8 Plain Text
    Заголовок : FORCED
    Язык : Russian
    Default : Да
    Forced : Нет

    Текст #2
    Идентификатор : 12
    Формат : UTF-8
    Идентификатор кодека : S_TEXT/UTF8
    Идентификатор кодека/Информация : UTF-8 Plain Text
    Заголовок : VAR1
    Язык : Russian
    Default : Нет
    Forced : Нет

    Текст #3
    Идентификатор : 13
    Формат : UTF-8
    Идентификатор кодека : S_TEXT/UTF8
    Идентификатор кодека/Информация : UTF-8 Plain Text
    Заголовок : VAR2
    Язык : Russian
    Default : Нет
    Forced : Нет

    Текст #4
    Идентификатор : 14
    Формат : UTF-8
    Идентификатор кодека : S_TEXT/UTF8
    Идентификатор кодека/Информация : UTF-8 Plain Text
    Язык : English
    Default : Нет
    Forced : Нет

    Меню
    00:00:00.000 : en:00:00:00.000
    00:00:51.384 : en:00:00:51.384
    00:07:45.882 : en:00:07:45.882
    00:12:32.376 : en:00:12:32.376
    00:17:42.561 : en:00:17:42.561
    00:24:38.310 : en:00:24:38.310
    00:28:01.388 : en:00:28:01.388
    00:33:35.388 : en:00:33:35.388
    00:41:54.136 : en:00:41:54.136
    00:46:58.106 : en:00:46:58.106
    00:49:40.352 : en:00:49:40.352
    00:54:15.168 : en:00:54:15.168
    01:00:42.639 : en:01:00:42.639
    01:05:34.847 : en:01:05:34.847
    01:08:15.800 : en:01:08:15.800
    01:14:39.433 : en:01:14:39.433
    01:16:59.031 : en:01:16:59.031
    01:20:15.811 : en:01:20:15.811
    01:24:35.862 : en:01:24:35.862
    01:26:09.789 : en:01:26:09.789
    01:30:39.183 : en:01:30:39.183
    01:35:47.992 : en:01:35:47.992
    01:40:14.675 : en:01:40:14.675
    01:42:43.365 : en:01:42:43.365

    Скриншоты для ознакомления:



    Залил: avproh
    Размер скачиваемого торрента: 29.85 GB (32048386015 Bytes)

    Роман с камнем / Romancing the Stone (1984) BDRemux 1080p от New-Team | D торрент скачать бесплатно
    загрузка...
    Рейтинг →
     (голосов: 1, оценка 5/5, голосовать можно 1 раз )

    Другие торренты по теме:

  • Роман с камнем Жемчужина Нила / Romancing the Stone The Jewel of the Nile (1984-1985) BDRip 720p от NoLimits-Team
  • Москвина Марина - Роман с Луной (2013) MP3
  • Роман с камнем / Romancing the Stone (1984) BDRip от New-Team | D
  • Роман с камнем / Romancing the Stone (1984) HDRip от MediaClub | КПК
  • Роман с камнем / Romancing the Stone (1984) Blu-Ray от HDClub | Custom
  • Роман с камнем / Romancing the Stone (1984) BDRip 1080p от HDClub
  • Роман с камнем и Жемчужина Нила / Romancing the Stone & The Jewel of the Nile / 1984-1985 / ДБ, 4 х ПМ, ПД, 4 х АП, СТ / 2 х Blu-Ray (1080p)
  • Роман Злотников, Алексей Махров – Разговор с Вождем (2016) MP3


    • Комментарии (0):

      Информация

      Информация

        Посетители, находящиеся в группе Гости, не могут оставлять комментарии в данной новости.

        ↓ Меню



        ↓ Опрос

        А Вы добавили сайт в закладки?
        Да
        Не


        Top 10 за месяц (Фильмы)