.
Авторизация | Регистрация
Хочешь лучшие торренты? Добавь свой email!
Добавить
» » Великолепная Анжелика / Merveilleuse Angelique (1965) HDTVRip от Leon-masl скачать торрент бесплатно




    Великолепная Анжелика / Merveilleuse Angelique (1965) HDTVRip от Leon-masl скачать торрент бесплатно

    Опубликовал: Админ | Дата: 27-02-2015, 11:09 | Просмотров: 308



    Детально о кино
    Русское название: Великолепная Анжелика
    Русское название в мировом прокате: Merveilleuse Angelique
    Создали в: 1965
    Категория жанра: Приключения, мелодрама, экранизация, история
    Главный режиссер: Бернар Бордери
    Актеры: Мишель Мерсье, Клод Жиро, Жан Рошфор, Жан-Луи Трентиньян, Джулиано Джемма, Клер Морье, Эрнст Шрёдер, Шарль Ренье, Жак Тожа, Франсуа Мэстр

    Сюжет фильма:
    После того как ее мужа сжигают на костре, Анжелика находит убежище у разбойников, глава которых — друг ее детства Николя. Во время нападения другой банды, Николя вынужден пожертвовать собой, чтобы позволить Анжелике бежать. Судьба вновь благосклонна к ней — Анжелике удается выйти замуж за маркиза де Плесси-Бельера. Она решает проникнуть в Версаль и отомстить королю — убийце мужа…



    Снималось в: Франция, Италия, Германия (ФРГ), CICC, Films Borderie, Fono Roma, Francos Films, Gloria-Film GmbH, Soci?t? Nouvelle Prodis
    Время просмотра: 01:38:14
    Перевод текста: Дублированный

    Файл
    Кодек для видео: XviD
    Качество фильма: HDTVRip
    Информация о видео: 704x304, 25.000 fps, 1921 kbps
    Информация о звуке: AC3, 192 kbps, 2 ch, 48.0 khz
    MI
    Общее
    Полное имя : Velikolepnaya.Angelika.1965.HDTVRip.avi
    Формат : AVI
    Формат/Информация : Audio Video Interleave
    Размер файла : 1,46 Гбайт
    Продолжительность : 1 ч. 38 м.
    Общий поток : 2123 Кбит/сек
    Программа кодирования : VirtualDubMod 1.5.10.2 (build 2542/release)
    Библиотека кодирования : VirtualDubMod build 2542/release

    Видео
    Идентификатор : 0
    Формат : MPEG-4 Visual
    Профиль формата : Advanced Simple@L5
    Параметр BVOP формата : 1
    Параметр QPel формата : Нет
    Параметр GMC формата : Без точки перехода
    Параметр матрицы формата : Выборочная
    Идентификатор кодека : XVID
    Идентификатор кодека/Подсказка : XviD
    Продолжительность : 1 ч. 38 м.
    Битрейт : 1921 Кбит/сек
    Ширина : 704 пикс.
    Высота : 304 пикс.
    Соотношение сторон : 2,35:1
    Частота кадров : 25,000 кадр/сек
    Цветовое пространство : YUV
    Подвыборка цветности : 4:2:0
    Битовая глубина : 8 бит
    Тип развёртки : Прогрессивная
    Метод сжатия : С потерями
    Бит/(Пиксели*Кадры) : 0.359
    Размер потока : 1,32 Гбайт (90%)
    Библиотека кодирования : XviD 73

    Аудио
    Идентификатор : 1
    Формат : AC-3
    Формат/Информация : Audio Coding 3
    Расширение режима : CM (complete main)
    Идентификатор кодека : 2000
    Продолжительность : 1 ч. 38 м.
    Вид битрейта : Постоянный
    Битрейт : 192 Кбит/сек
    Канал(ы) : 2 канала(ов)
    Расположение каналов : Front: L R
    Частота : 48,0 КГц
    Битовая глубина : 16 бит
    Метод сжатия : С потерями
    Размер потока : 135 Мбайт (9%)
    Выравнивание : Разделение по промежуткам
    Продолжительность промежутка : 40 мс. (1,00 видеокадр)
    Время предзагрузки промежутка : 500 ms
    Скриншоты для ознакомления


    Релиз подготовил: Leon-masl
    Залил: leon-masl
    Размер скачиваемого торрента: 1.46 GB (1563877376 Bytes)

    Великолепная Анжелика / Merveilleuse Angelique (1965) HDTVRip от Leon-masl торрент скачать бесплатно
    загрузка...
    Рейтинг →
     (голосов: 1, оценка 4/5, голосовать можно 1 раз )

    Другие торренты по теме:

  • Великолепная Анжелика / Merveilleuse Angelique (1965) HDTV 1080i от ClubTorrent | D скачать через торрент бесплатно
  • Великолепная Анжелика / Merveilleuse Anglique (1965) BDRip by msltel | D, P
  • Великолепная Анжелика / Merveilleuse Anglique (1965) BDRip 720p by msltel | D, P скачать через торрент бесплатно
  • Великолепная Анжелика / Merveilleuse Anglique (1965) BDRip 1080p by msltel | D, P скачать через торрент бесплатно
  • Великолепная Анжелика / Merveilleuse Angelique (1965) BDRip от HQCLUB
  • Великолепная Анжелика / Merveilleuse Angelique (1965) HDRip от Scarabey | P скачать через торрент бесплатно


    • Комментарии (0):

      Информация

      Информация

        Посетители, находящиеся в группе Гости, не могут оставлять комментарии в данной новости.

        ↓ Меню



        ↓ Опрос

        А Вы добавили сайт в закладки?
        Да
        Не


        Top 10 за месяц (Фильмы)