.
Авторизация | Регистрация
Хочешь лучшие торренты? Добавь свой email!
Добавить
» » Анжелика, маркиза ангелов / Angelique, marquise des anges (1964) HDTVRip от Leon-masl скачать торрент бесплатно




    Анжелика, маркиза ангелов / Angelique, marquise des anges (1964) HDTVRip от Leon-masl скачать торрент бесплатно

    Опубликовал: Админ | Дата: 27-02-2015, 11:09 | Просмотров: 373



    Детально о кино
    Русское название: Анжелика, маркиза ангелов
    Русское название в мировом прокате: Angelique, marquise des anges
    Создали в: 1964
    Категория жанра: Экранизация, приключения, мелодрама
    Главный режиссер: Бернар Бордери
    Актеры: Мишель Мерсье, Робер Оссейн, Жан Рошфор, Клод Жиро, Джулиано Джемма, Шарль Ренье, Жак Тожа, Мадлен ЛеБо, Жан Топар, Бернар Воринже, Филипп Лемэр, Жан Озенн, Франсуа Мэтр

    Сюжет фильма:
    Экранизация многотомного романа Анн и Сержа Голон. Анжелика, необыкновенно красивая бедная аристократка вынуждена выйти замуж за Жоффрея де Пейрака. Несмотря на его внешность, она со временем полюбила его. Влюбленные живут счастливо в своем замке, пока однажды к ним не приезжает король. Восхищенный красотой Анжелики Людовик XIV хочет сделать ее своей наложницей…




    Снималось в: Франция, Германия (ФРГ), Италия, Prodis, Liber Film
    Время просмотра: 01:32:11
    Перевод текста: Дублированный

    Файл
    Кодек для видео: XviD
    Качество фильма: HDTVRip
    Информация о видео: 704x304, 25.000 fps, 2063 kbps
    Информация о звуке: AC3, 192 kbps, 2 ch, 48.0 khz
    MI
    Общее
    Полное имя : Anzhelika.markiza.angelov.1964.HDTVRip.avi
    Формат : AVI
    Формат/Информация : Audio Video Interleave
    Размер файла : 1,46 Гбайт
    Продолжительность : 1 ч. 32 м.
    Общий поток : 2265 Кбит/сек
    Программа кодирования : VirtualDubMod 1.5.10.3 | www.virtualdub-fr.org || (build 2550/release)
    Библиотека кодирования : VirtualDubMod build 2550/release

    Видео
    Идентификатор : 0
    Формат : MPEG-4 Visual
    Профиль формата : Advanced Simple@L5
    Параметр BVOP формата : 1
    Параметр QPel формата : Нет
    Параметр GMC формата : Без точки перехода
    Параметр матрицы формата : Выборочная
    Идентификатор кодека : XVID
    Идентификатор кодека/Подсказка : XviD
    Продолжительность : 1 ч. 32 м.
    Битрейт : 2063 Кбит/сек
    Ширина : 704 пикс.
    Высота : 304 пикс.
    Соотношение сторон : 2,35:1
    Частота кадров : 25,000 кадр/сек
    Цветовое пространство : YUV
    Подвыборка цветности : 4:2:0
    Битовая глубина : 8 бит
    Тип развёртки : Прогрессивная
    Метод сжатия : С потерями
    Бит/(Пиксели*Кадры) : 0.386
    Размер потока : 1,33 Гбайт (91%)
    Библиотека кодирования : XviD 73

    Аудио
    Идентификатор : 1
    Формат : AC-3
    Формат/Информация : Audio Coding 3
    Расширение режима : CM (complete main)
    Идентификатор кодека : 2000
    Продолжительность : 1 ч. 32 м.
    Вид битрейта : Постоянный
    Битрейт : 192 Кбит/сек
    Канал(ы) : 2 канала(ов)
    Расположение каналов : Front: L R
    Частота : 48,0 КГц
    Битовая глубина : 16 бит
    Метод сжатия : С потерями
    Размер потока : 127 Мбайт (8%)
    Выравнивание : Разделение по промежуткам
    Продолжительность промежутка : 40 мс. (1,00 видеокадр)
    Время предзагрузки промежутка : 500 ms
    Скриншоты для ознакомления


    Релиз подготовил: Leon-masl

    Залил: leon-masl
    Размер скачиваемого торрента: 1.46 GB (1565708288 Bytes)

    Анжелика, маркиза ангелов / Angelique, marquise des anges (1964) HDTVRip от Leon-masl торрент скачать бесплатно
    загрузка...
    Рейтинг →
     (голосов: 1, оценка 4/5, голосовать можно 1 раз )

    Другие торренты по теме:

  • Анжелика, маркиза ангелов (2014) скачать через торрент бесплатно
  • Анжелика, маркиза ангелов / Angelique, marquise des anges (1964) HDTV 1080i от ClubTorrent | D
  • Анжелика, маркиза ангелов / Angelique, marquise des anges (1964) BDRip by msltel | D, P скачать через торрент бесплатно
  • Анжелика, маркиза ангелов / Angelique, marquise des anges (1964) BDRip 720p by msltel | D, P
  • Анжелика, маркиза ангелов / Angelique, marquise des anges (1964) BDRip 1080p by msltel | D, P скачать через торрент бесплатно
  • Анжелика, маркиза ангелов / Angelique, marquise des anges (2013) DVDRip от New-Team | D | лицензия
  • Анжелика, маркиза ангелов / Anglique, marquise des anges (2013) DVDRip | Лицензия
  • Анжелика, маркиза ангелов / Angelique, marquise des anges (2013) DVD9 R5 от New-Team | D | лицензия скачать через торрент бесплатно


    • Комментарии (0):

      Информация

      Информация

        Посетители, находящиеся в группе Гости, не могут оставлять комментарии в данной новости.

        ↓ Меню



        ↓ Опрос

        А Вы добавили сайт в закладки?
        Да
        Не


        Top 10 за месяц (Фильмы)