.
Авторизация | Регистрация
Хочешь лучшие торренты? Добавь свой email!
Добавить
» » Роман с камнем / Romancing the Stone (1984) BDRip от New-Team | D скачать торрент бесплатно




    Роман с камнем / Romancing the Stone (1984) BDRip от New-Team | D скачать торрент бесплатно

    Опубликовал: Админ | Дата: 27-02-2015, 11:09 | Просмотров: 253

    She;s a girl from the big city. He;s a reckless soldier of fortune. For a fabulous treasure, they share an adventure no one could imagine... or survive



    Снималось в: Мексика, США / 20th Century Fox Film Corporation, El Corazon Producciones S.A., Nina Saxon Film Design
    Категория жанра: боевик, мелодрама, комедия, приключения
    Создали в: 1984
    Время просмотра: 01:45:46

    Перевод текста: Профессиональный (дублированный) - Дубляжная группа киностудии имени М. Горького;

    Субтитры подготовлены: русский (форсированный плюс 2 варианта полных), английский
    Оригинальная аудиодорожка: нет

    Главный режиссер: Роберт Земекис / Robert Zemeckis

    Актеры: Майкл Дуглас, Кэтлин Тёрнер, Дэнни ДеВито, Зак Норман, Альфонсо Арау, Мануэль Охеда, Холланд Тейлор, Мэри Эллен Трейнор, Ив Смит, Джо Несноу...

    Роли дублировали: Сергей Сазонтьев, Анна Каменкова, Михаил Кононов, Герман Качин, Владимир Ферапонтов...

    Сюжет: Джоан Уайлдер, автор популярных женских романов, находит в своем почтовом ящике пакет, присланный из Колумбии ее сестрой. Телефонный звонок подтверждает самые страшные опасения — сестра похищена, и похитители требуют вернуть пакет.
    Забыв обо всем на свете, Джоан летит на помощь сестре и теряется в первые часы после прилета. Ее пытаются убить, и только вмешательство Джека Колтона, американского наемника, спасет девушку от гибели.
    Вместе их ждут экстремальные приключения в джунглях, поиск сокровищ и, конечно, романтическая любовная история.




    Качество фильма: BDRip / Blu-ray 1080p
    Тип видео: AVI

    Информация о видео: 720x304 (2.35:1), 23.976 fps, XVID ~1514 kbps avg, 0.289 bit/pixel
    Информация о звуке: 48 kHz, Dolby AC3, 6 ch, 448 kbps, русский
    Тип видео субтитров: SoftSub (srt)

    Раздача от:
    MediaInfo

    Общее
    Полное имя : Roman.s.kamnem.1984.D.BDRip_New-Team_by_avproh.avi
    Формат : AVI
    Формат/Информация : Audio Video Interleave
    Размер файла : 1,46 Гбайт
    Продолжительность : 1 ч. 45 м.
    Общий поток : 1972 Кбит/сек
    Программа кодирования : VirtualDubModRus 1.5.10.2 (build 2542/release)
    Библиотека кодирования : VirtualDubMod build 2542/release

    Видео
    Идентификатор : 0
    Формат : MPEG-4 Visual
    Профиль формата : Advanced Simple@L5
    Параметр BVOP формата : 1
    Параметр QPel формата : Нет
    Параметр GMC формата : Без точки перехода
    Параметр матрицы формата : Выборочная
    Идентификатор кодека : XVID
    Идентификатор кодека/Подсказка : XviD
    Продолжительность : 1 ч. 45 м.
    Битрейт : 1514 Кбит/сек
    Ширина : 720 пикселей
    Высота : 304 пикселя
    Соотношение сторон : 2,35:1
    Частота кадров : 23,976 кадра/сек
    Цветовое пространство : YUV
    Субдискретизация насыщенности : 4:2:0
    Битовая глубина : 8 бит
    Тип развёртки : Прогрессивная
    Метод сжатия : С потерями
    Бит/(Пиксели*Кадры) : 0.289
    Размер потока : 1,12 Гбайт (77%)
    Библиотека кодирования : XviD 73

    Аудио
    Идентификатор : 1
    Формат : AC-3
    Формат/Информация : Audio Coding 3
    Расширение режима : CM (complete main)
    Параметр Endianness формата : Big
    Идентификатор кодека : 2000
    Продолжительность : 1 ч. 45 м.
    Вид битрейта : Постоянный
    Битрейт : 448 Кбит/сек
    Каналы : 6 каналов
    Расположение каналов : Front: L C R, Side: L R, LFE
    Частота : 48,0 КГц
    Битовая глубина : 16 бит
    Метод сжатия : С потерями
    Размер потока : 339 Мбайт (23%)
    Выравнивание : Разделение по промежуткам
    Продолжительность промежутка : 42 мс. (1,00 видеокадр)
    Время предзагрузки промежутка : 500 мс.

    Скриншоты для ознакомления:



    Сравнение:

    http://www.rutor.org/torrent/20786/

    http://screenshotcomparison.com/comparison/56739

    Залил: avproh
    Размер скачиваемого торрента: 1.46 GB (1564476012 Bytes)

    Роман с камнем / Romancing the Stone (1984) BDRip от New-Team | D торрент скачать бесплатно
    загрузка...
    Рейтинг →
     (голосов: 1, оценка 5/5, голосовать можно 1 раз )

    Другие торренты по теме:

  • Роман с камнем Жемчужина Нила / Romancing the Stone The Jewel of the Nile (1984-1985) BDRip 720p от NoLimits-Team
  • Москвина Марина - Роман с Луной (2013) MP3
  • Роман с камнем / Romancing the Stone (1984) BDRemux 1080p от New-Team | D
  • Роман с камнем / Romancing the Stone (1984) HDRip от MediaClub | КПК
  • Роман с камнем / Romancing the Stone (1984) Blu-Ray от HDClub | Custom
  • Роман с камнем / Romancing the Stone (1984) BDRip 1080p от HDClub
  • Роман с камнем и Жемчужина Нила / Romancing the Stone & The Jewel of the Nile / 1984-1985 / ДБ, 4 х ПМ, ПД, 4 х АП, СТ / 2 х Blu-Ray (1080p)
  • Роман Злотников, Алексей Махров – Разговор с Вождем (2016) MP3


    • Комментарии (0):

      Информация

      Информация

        Посетители, находящиеся в группе Гости, не могут оставлять комментарии в данной новости.

        ↓ Меню



        ↓ Опрос

        А Вы добавили сайт в закладки?
        Да
        Не


        Top 10 за месяц (Фильмы)