.
Авторизация | Регистрация
Хочешь лучшие торренты? Добавь свой email!
Добавить
» » Чрево / Womb (2010) HDRip от Killbrain and Scarabey | Лицензия скачать торрент бесплатно




    Чрево / Womb (2010) HDRip от Killbrain and Scarabey | Лицензия скачать торрент бесплатно

    Опубликовал: Админ | Дата: 27-02-2015, 11:09 | Просмотров: 298

    Чрево / Womb
    What are the consequences of giving birth to your dead boyfriend?



    Снималось в: Германия, Венгрия, Франция
    Киностудия: Arte France Cin?ma, Asap Films, Boje Buck Produktion GmbH, Inforg St?di?, Razor Film Produktion GmbH, ZDF/Arte
    Категория жанра: фантастика, драма, мелодрама
    Создали в: 2010
    Время просмотра: 01:51:53

    Перевод текста: русский профессиональный (многоголосый, закадровый) Лицензия, R5
    Оригинальная аудиодорожка: нет
    Русские субтитры: нет
    Главный режиссер: Бенедек Флигауф / Benedek Fliegauf
    Актеры: Ева Грин, Мэтт Смит, Лесли Мэнвилл, Питер Уайт, Иштван Ленар, Ханна Мюррэй, Руби О. Фи, Тристан Кристофер, Джесси Хоффманн, Наталия Тена


    Недалекое будущее. Семилетние Ребекка и Томас живут в небольшом прибрежном городке и дружат с самого детства. После окончания школы семнадцатилетняя Ребекка возвращается в родной городок и у нее завязывается бурный роман с подросшим Томасом.
    Спустя несколько месяцев Томас погибает в нелепой автокатастрофе. Отчаявшаяся Ребекка не находит себе места до тех пор, пока ей не приходит в голову безумная идея. В недалеком будущем вполне обыденным явлением стало клонирование людей, пусть общество и не до конца принимает это научное изобретение. Ребекка решает дать новую жизнь своему потерянному возлюбленному...
    В доме на берегу моря повзрослевшая Ребекка растит обаятельного сына Томаса, который уверен, что его отец погиб в автокатастрофе. Ребекка никогда не говорит вслух о клонировании. Пока не появляется кое-кто из прошлой жизни и тайное не становится явным...

    Тип релиза: HDRip (исходник: Womb.2010.BDRip1080p(Killbrain)_scarabey.org.mkv)
    Информация о видео: 720x304 (2.37:1), 24 fps, XviD build 73 ~1663 kbps avg, 0.32 bit/pixel
    Информация о звуке: AC3 / 2.0 ch / 192 kbps / Русский MVO, R5
    Субтитры: нет

    Раздача от:

    АНОНСЫ МОИХ РАЗДАЧ!





    Дополнительно о фильме:

    Знаете ли вы, что...

    Технические детали съёмки:

    Производство, студия дубляжа, прокат:

    MediaInfo:
    Общее
    Полное имя : F:Скачка торрентWomb.2010.HDRip(Killbrain)_scarabey.org.avi
    Формат : AVI
    Формат/Информация : Audio Video Interleave
    Размер файла : 1,46 Гбайт
    Продолжительность : 1 ч. 51 м.
    Общий поток : 1865 Кбит/сек
    Название фильма : Womb
    Режиссёр : Killbrain
    Жанр : Drama
    Программа кодирования : VirtualDubModRus 1.5.10.2 (build 2540/release)
    Формат оригинала/Имя : Movie
    Правообладатель : scarabey.org

    Видео
    Идентификатор : 0
    Формат : MPEG-4 Visual
    Профиль формата : Advanced Simple@L5
    Параметр BVOP формата : 2
    Параметр QPel формата : Нет
    Параметр GMC формата : Без точки перехода
    Параметр матрицы формата : Выборочная
    Идентификатор кодека : XVID
    Идентификатор кодека/Подсказка : XviD
    Продолжительность : 1 ч. 51 м.
    Битрейт : 1663 Кбит/сек
    Ширина : 720 пикселей
    Высота : 304 пикселя
    Соотношение сторон : 2,35:1
    Частота кадров : 24,000 кадра/сек
    Цветовое пространство : YUV
    Субдискретизация насыщенности : 4:2:0
    Битовая глубина : 8 бит
    Тип развёртки : Прогрессивная
    Метод сжатия : С потерями
    Бит/(Пиксели*Кадры) : 0.317
    Размер потока : 1,30 Гбайт (89%)
    Библиотека кодирования : XviD 73

    Аудио
    Идентификатор : 1
    Формат : AC-3
    Формат/Информация : Audio Coding 3
    Расширение режима : CM (complete main)
    Параметр Endianness формата : Big
    Идентификатор кодека : 2000
    Продолжительность : 1 ч. 51 м.
    Вид битрейта : Постоянный
    Битрейт : 192 Кбит/сек
    Каналы : 2 канала
    Расположение каналов : Front: L R
    Частота : 48,0 КГц
    Битовая глубина : 16 бит
    Метод сжатия : С потерями
    Размер потока : 154 Мбайт (10%)
    Выравнивание : Разделение по промежуткам
    Продолжительность промежутка : 42 мс. (1,00 видеокадр)
    Время предзагрузки промежутка : 500 мс.

    Скриншоты для ознакомления:

    Немного отзывов с Кинопоиска.Ру:



    Залил: Кillbrain
    Размер скачиваемого торрента: 1.46 GB (1564661760 Bytes)

    Чрево / Womb (2010) HDRip от Killbrain and Scarabey | Лицензия торрент скачать бесплатно
    загрузка...
    Рейтинг →
     (голосов: 1, оценка 5/5, голосовать можно 1 раз )

    Другие торренты по теме:

  • Чрево / Womb (2010) BDRip 1080p от Killbrain and Scarabey | Лицензия скачать через торрент бесплатно
  • Чрево / Womb (2010) HDRip-AVC от Killbrain and Scarabey | Лицензия
  • Чрево / Womb (2010) BDRip от HQCLUB | Лицензия
  • Чрево / Womb (2010) BDRip-AVC от MediaClub | P скачать через торрент бесплатно
  • Чрево / Womb (2010) BDRip от MediaClub | КПК
  • Чрево Парижа скачать через торрент бесплатно


    • Комментарии (0):

      Информация

      Информация

        Посетители, находящиеся в группе Гости, не могут оставлять комментарии в данной новости.

        ↓ Меню



        ↓ Опрос

        А Вы добавили сайт в закладки?
        Да
        Не


        Top 10 за месяц (Фильмы)