.
Авторизация | Регистрация
Хочешь лучшие торренты? Добавь свой email!
Добавить
» » Месть / Haevnen (2010) BDRip by msltel | P, A скачать через торрент бесплатно




    Месть / Haevnen (2010) BDRip by msltel | P, A скачать через торрент бесплатно

    Опубликовал: Админ | Дата: 27-02-2015, 11:09 | Просмотров: 273



    Русское название: Месть
    Русское название в мировом прокате: Haevnen
    Создали в: 2010
    Категория жанра: Драма
    Снималось в: Швеция, Дания, Danmarks Radio, Det Danske Filminstitut, Film Fyn
    Главный режиссер: Сюзанна Бир
    Актеры: Микаэль Персбрандт, Трин Дюрхольм, Ульрих Томсен, Вильям Йонк Нильсен, Маркус Рюгард, Уил Джонсон, Эдди Кимани, Эмили Мглая, Гэбриэл Мули, Джун Ваверу, Мэри Хуну Моат

    Сюжет фильма: Сорокалетний Антон возвращается в родную Данию, много лет проработав в африканском лагере для беженцев. Долгие годы среди чужого горя научили его никогда не отвечать насилием на насилие. Даже когда местный автомеханик беспричинно избивает Антона, тот сдерживает гнев. Кажется, что конфликт исчерпан, но тут его сын Элиас вместе со своим другом Кристианом решают отомстить за отца...

    Качество фильма: BDRip
    Информация о видео: XviD, 1576 Кбит/с, 720x304
    Информация о звуке: Русский, датский (АС3, 6 ch, 448 Кбит/с)
    Размер скачиваемого торрента: 2.42 ГБ
    Время просмотра: 01:58:01
    Перевод текста: Профессиональный многоголосый, авторский (Юрий Сербин)
    Субтитры: Русские, английские

    Исходник: igorella87 (Кинозал)

    Сравнение с исходником



    Награды
    Оскар, 2011 год
    Победитель (1):
    Лучший фильм на иностранном языке — Дания

    Золотой глобус, 2011 год
    Победитель (1):
    Лучший фильм на иностранном языке

    Европейская киноакадемия, 2011 год
    Победитель (1):
    Лучший режиссер (Сюзанна Бир)

    Номинации (3):
    Лучший фильм
    Лучшая мужская роль (Микаэл Персбрандт)
    Приз зрительских симпатий за лучший фильм
    MediaInfo
    Общее
    Полное имя : E:VideoMest;.2010.XviD.BDRipMest;.2010.eng.srt
    Размер файла : 116 Кбайт

    Общее
    Полное имя : E:VideoMest;.2010.XviD.BDRipMest;.2010.Original.eng.ac3
    Формат : AC-3
    Формат/Информация : Audio Coding 3
    Размер файла : 378 Мбайт
    Продолжительность : 1 ч. 58 м.
    Режим общего битрейта : Постоянный
    Общий поток : 448 Кбит/сек

    Аудио
    Формат : AC-3
    Формат/Информация : Audio Coding 3
    Расширение режима : CM (complete main)
    Параметр Endianness формата : Big
    Продолжительность : 1 ч. 58 м.
    Вид битрейта : Постоянный
    Битрейт : 448 Кбит/сек
    Каналы : 6 каналов
    Расположение каналов : Front: L C R, Side: L R, LFE
    Частота : 48,0 КГц
    Битовая глубина : 16 бит
    Метод сжатия : С потерями
    Размер потока : 378 Мбайт (100%)

    Общее
    Полное имя : E:VideoMest;.2010.XviD.BDRipMest;.2010.rus.srt
    Размер файла : 139 Кбайт

    Общее
    Полное имя : E:VideoMest;.2010.XviD.BDRipMest;.2010.XviD.BDRip.avi
    Формат : AVI
    Формат/Информация : Audio Video Interleave
    Профиль формата : OpenDML
    Размер файла : 2,05 Гбайт
    Продолжительность : 1 ч. 58 м.
    Общий поток : 2491 Кбит/сек
    Программа кодирования : VirtualDubMod 1.5.10.2 (build 2540/release)
    Библиотека кодирования : VirtualDubMod build 2540/release

    Видео
    Идентификатор : 0
    Формат : MPEG-4 Visual
    Профиль формата : Advanced Simple@L5
    Параметр BVOP формата : 1
    Параметр QPel формата : Нет
    Параметр GMC формата : Без точки перехода
    Параметр матрицы формата : Default (H.263)
    Режим смешивания : Сжатый битовый поток
    Идентификатор кодека : XVID
    Идентификатор кодека/Подсказка : XviD
    Продолжительность : 1 ч. 58 м.
    Битрейт : 1576 Кбит/сек
    Ширина : 720 пикселей
    Высота : 304 пикселя
    Соотношение сторон : 2,35:1
    Частота кадров : 24,000 кадра/сек
    Цветовое пространство : YUV
    Субдискретизация насыщенности : 4:2:0
    Битовая глубина : 8 бит
    Тип развёртки : Прогрессивная
    Метод сжатия : С потерями
    Бит/(Пиксели*Кадры) : 0.300
    Размер потока : 1,30 Гбайт (63%)
    Библиотека кодирования : XviD 1.2.1 (UTC 2008-12-04)

    Аудио #1
    Идентификатор : 1
    Формат : AC-3
    Формат/Информация : Audio Coding 3
    Расширение режима : CM (complete main)
    Параметр Endianness формата : Big
    Идентификатор кодека : 2000
    Продолжительность : 1 ч. 58 м.
    Вид битрейта : Постоянный
    Битрейт : 448 Кбит/сек
    Каналы : 6 каналов
    Расположение каналов : Front: L C R, Side: L R, LFE
    Частота : 48,0 КГц
    Битовая глубина : 16 бит
    Метод сжатия : С потерями
    Размер потока : 378 Мбайт (18%)
    Выравнивание : Разделение по промежуткам
    Продолжительность промежутка : 42 мс. (1,00 видеокадр)
    Время предзагрузки промежутка : 500 мс.

    Аудио #2
    Идентификатор : 2
    Формат : AC-3
    Формат/Информация : Audio Coding 3
    Расширение режима : CM (complete main)
    Параметр Endianness формата : Big
    Идентификатор кодека : 2000
    Продолжительность : 1 ч. 58 м.
    Вид битрейта : Постоянный
    Битрейт : 448 Кбит/сек
    Каналы : 6 каналов
    Расположение каналов : Front: L C R, Side: L R, LFE
    Частота : 48,0 КГц
    Битовая глубина : 16 бит
    Метод сжатия : С потерями
    Размер потока : 378 Мбайт (18%)
    Выравнивание : Разделение по промежуткам
    Продолжительность промежутка : 42 мс. (1,00 видеокадр)
    Время предзагрузки промежутка : 500 мс.
    Скриншоты для ознакомления



    Залил: msltel
    Размер скачиваемого торрента: 2.42 GB (2601392400 Bytes)

    Месть / Haevnen (2010) BDRip by msltel | P, A скачать через торрент бесплатно
    загрузка...
    Рейтинг →
     (голосов: 1, оценка 3/5, голосовать можно 1 раз )

    Другие торренты по теме:

  • Месть придурков / Месть ботанов / Revenge of the Nerds (1984) HDTVRip-AVC от Youtracker | D, 2xP2
  • Госпожа Месть / Сочувствие госпоже Месть / Chinjeolhan geumjassi / Lady Vengeance (2005) HDRip от Scarabey | P2
  • Месть / Возвращение / The Return (2006) BDRip от Rulya74
  • Месть Может Подождать / Vengeance Can Wait / Ranbo To Taiki (2010) DVDRip | L
  • Сборник шумов - Месть соседям (2012) MP3 от RG Superdetki
  • Очная ставка. Месть за любовь (2013) SATRip
  • Спартак: Месть / Spartacus: Vengeance (2012) BDRip-AVC | LostFilm | Extended Version
  • Месть пьяного мастера / Revenge of the Drunken Master (1984) DVDRip от ikusha76


    • Комментарии (0):

      Информация

      Информация

        Посетители, находящиеся в группе Гости, не могут оставлять комментарии в данной новости.

        ↓ Меню



        ↓ Опрос

        А Вы добавили сайт в закладки?
        Да
        Не


        Top 10 за месяц (Фильмы)