.
Авторизация | Регистрация
Хочешь лучшие торренты? Добавь свой email!
Добавить
» » В постели с врагом / Sleeping With the Enemy (1991) BDRip 1080p by msltel | D, P, P2, A, L1 скачать торрент бесплатно




    В постели с врагом / Sleeping With the Enemy (1991) BDRip 1080p by msltel | D, P, P2, A, L1 скачать торрент бесплатно

    Опубликовал: Админ | Дата: 27-02-2015, 11:09 | Просмотров: 300



    Русское название: В постели с врагом
    Русское название в мировом прокате: Sleeping With the Enemy
    Создали в: 1991
    Категория жанра: Триллер, драма
    Снималось в: США, XX Century Fox
    Главный режиссер: Джозеф Рубен
    Актеры: Джулия Робертс, Патрик Берджин, Кевин Андерсон, Тони Абатемарко, Клодетт Невинс, Элизабет Лоуренс, Марита Герахти, Нэнси Фиш, Кайл Секор, Харли Вентон

    Сюжет фильма: Благополучная с виду молодая супружеская пара с первых дней совместной жизни пребывает в атмосфере страха и напряжения… Красавица Лора Берни, доведённая до отчаяния ревностью и агрессивностью обожающего её мужа Мартина и не знающая, как выпутаться из сетей брака, который стал для неё пыткой и тюрьмой, задумывает рискованную интригу. Она решает сымитировать собственную гибель. И ей действительно удаётся начать новую жизнь под другим именем, встретить хорошего человека. Но бывший муж узнаёт правду и начинает преследование...

    Качество фильма: BDRip 1080p
    Размер скачиваемого торрента: 13.8 ГБ
    Время просмотра: 01:37:38

    Информация о видео: MPEG-4 AVC, 12.4 Mбит/с, 1920х1040
    Информация о звуке 1: русский, 48 kHz, DTS, 6 ch, 768 kbps avg, Дублированный, CEE
    Информация о звуке 2: русский, 48 kHz, AC3, 2 ch, 192 kbps avg, Профессиональный многоголосый, OPT *
    Информация о звуке 3: русский, 48 kHz, AC3, 2 ch, 192 kbps avg, Профессиональный многоголосый, Лазер видео
    Информация о звуке 4: русский, 48 kHz, DTS, 6 ch, 1509 kbps avg, Профессиональный двухголосый, HTB
    Информация о звуке 5: русский, 48 kHz, AC3, 2 ch, 192 kbps avg, Профессиональный двухголосый, Премьер видео *
    Информация о звуке 6: русский, 48 kHz, AC3, 2 ch, 192 kbps avg, Авторский, Юрий Живов
    Информация о звуке 7: русский, 48 kHz, AC3, 2 ch, 192 kbps avg, Авторский, Павел Прямостанов *
    Информация о звуке 8: русский, 48 kHz, DTS, 6 ch, 1510 kbps avg, Любительский одноголосый, Алексей Попов

    Внешние файлы
    Информация о звуке: русский, 48 kHz, AC3, 6 ch, 448 kbps avg, Дублированный, CEE
    Информация о звуке: русский, 48 kHz, AC3, 6 ch, 448 kbps avg, Профессиональный двухголосый, HTB
    Информация о звуке: русский, 48 kHz, AC3, 6 ch, 448 kbps avg, Любительский одноголосый, Алексей Попов
    Информация о звуке: английский, 48 kHz, DTS, 6 ch, 1509 kbps avg, Оригинал
    Информация о звуке: английский, 48 kHz, AC3, 2 ch, 192 kbps avg, комментарий
    Субтитры: русские
    Субтитры: английские

    Имеются неименованные главы/чаптеры.

    * Дорожки от JUSTKANT и PUSSEN (Рутрекер)

    Исходник: 0ptimus (Кинозал)

    Сравнение с исходником



    Награды
    Сатурн, 1992 год
    Номинации (4):
    Лучший фильм ужасов
    Лучшая актриса (Джулия Робертс)
    Лучший актер второго плана (Патрик Бергин)
    Лучшая музыка
    MediaInfo Лог х264
    Общее
    Полное имя : E:VideoV posteli s vragom.1991.x264.BDRip.1080pV posteli s vragom.1991.Commentary.eng.ac3
    Формат : AC-3
    Формат/Информация : Audio Coding 3
    Размер файла : 134 Мбайт
    Продолжительность : 1 ч. 37 м.
    Режим общего битрейта : Постоянный
    Общий поток : 192 Кбит/сек

    Аудио
    Формат : AC-3
    Формат/Информация : Audio Coding 3
    Расширение режима : CM (complete main)
    Параметр Endianness формата : Big
    Продолжительность : 1 ч. 37 м.
    Вид битрейта : Постоянный
    Битрейт : 192 Кбит/сек
    Каналы : 2 канала
    Расположение каналов : Front: L R
    Частота : 48,0 КГц
    Битовая глубина : 16 бит
    Метод сжатия : С потерями
    Размер потока : 134 Мбайт (100%)

    Общее
    Полное имя : E:VideoV posteli s vragom.1991.x264.BDRip.1080pV posteli s vragom.1991.DUB.rus.CEE.ac3
    Формат : AC-3
    Формат/Информация : Audio Coding 3
    Размер файла : 313 Мбайт
    Продолжительность : 1 ч. 37 м.
    Режим общего битрейта : Постоянный
    Общий поток : 448 Кбит/сек

    Аудио
    Формат : AC-3
    Формат/Информация : Audio Coding 3
    Расширение режима : CM (complete main)
    Параметр Endianness формата : Big
    Продолжительность : 1 ч. 37 м.
    Вид битрейта : Постоянный
    Битрейт : 448 Кбит/сек
    Каналы : 6 каналов
    Расположение каналов : Front: L C R, Side: L R, LFE
    Частота : 48,0 КГц
    Битовая глубина : 16 бит
    Метод сжатия : С потерями
    Размер потока : 313 Мбайт (100%)

    Общее
    Полное имя : E:VideoV posteli s vragom.1991.x264.BDRip.1080pV posteli s vragom.1991.DVO.rus.HTB .ac3
    Формат : AC-3
    Формат/Информация : Audio Coding 3
    Размер файла : 313 Мбайт
    Продолжительность : 1 ч. 37 м.
    Режим общего битрейта : Постоянный
    Общий поток : 448 Кбит/сек

    Аудио
    Формат : AC-3
    Формат/Информация : Audio Coding 3
    Расширение режима : CM (complete main)
    Параметр Endianness формата : Big
    Продолжительность : 1 ч. 37 м.
    Вид битрейта : Постоянный
    Битрейт : 448 Кбит/сек
    Каналы : 6 каналов
    Расположение каналов : Front: L C R, Side: L R, LFE
    Частота : 48,0 КГц
    Битовая глубина : 16 бит
    Метод сжатия : С потерями
    Размер потока : 313 Мбайт (100%)

    Общее
    Полное имя : E:VideoV posteli s vragom.1991.x264.BDRip.1080pV posteli s vragom.1991.eng.srt
    Формат : SubRip
    Размер файла : 48,3 Кбайт

    Текст
    Формат : SubRip
    Метод сжатия : Без потерь

    Общее
    Полное имя : E:VideoV posteli s vragom.1991.x264.BDRip.1080pV posteli s vragom.1991.Original.eng.dts
    Формат : DTS
    Формат/Информация : Digital Theater Systems
    Размер файла : 1,03 Гбайт
    Продолжительность : 1 ч. 37 м.
    Режим общего битрейта : Постоянный
    Общий поток : 1509 Кбит/сек

    Аудио
    Формат : DTS
    Формат/Информация : Digital Theater Systems
    Режим : 16
    Параметр Endianness формата : Big
    Продолжительность : 1 ч. 37 м.
    Вид битрейта : Постоянный
    Битрейт : 1509 Кбит/сек
    Каналы : 6 каналов
    Расположение каналов : Front: L C R, Side: L R, LFE
    Частота : 48,0 КГц
    Битовая глубина : 24 бит
    Метод сжатия : С потерями
    Размер потока : 1,03 Гбайт

    Общее
    Полное имя : E:VideoV posteli s vragom.1991.x264.BDRip.1080pV posteli s vragom.1991.rus.srt
    Формат : SubRip
    Размер файла : 59,0 Кбайт

    Текст
    Формат : SubRip
    Метод сжатия : Без потерь

    Общее
    Полное имя : E:VideoV posteli s vragom.1991.x264.BDRip.1080pV posteli s vragom.1991.VO.rus.А.Попов.ac3
    Формат : AC-3
    Формат/Информация : Audio Coding 3
    Размер файла : 313 Мбайт
    Продолжительность : 1 ч. 37 м.
    Режим общего битрейта : Постоянный
    Общий поток : 448 Кбит/сек

    Аудио
    Формат : AC-3
    Формат/Информация : Audio Coding 3
    Расширение режима : CM (complete main)
    Параметр Endianness формата : Big
    Продолжительность : 1 ч. 37 м.
    Вид битрейта : Постоянный
    Битрейт : 448 Кбит/сек
    Каналы : 6 каналов
    Расположение каналов : Front: L C R, Side: L R, LFE
    Частота : 48,0 КГц
    Битовая глубина : 16 бит
    Метод сжатия : С потерями
    Размер потока : 313 Мбайт (100%)

    Общее
    Уникальный идентификатор : 232459711520365048171721487959233042823 (0xAEE21CA75163AA2E9843AE200A9A9987)
    Полное имя : E:VideoV posteli s vragom.1991.x264.BDRip.1080pV posteli s vragom.1991.x264.BDRip.1080p.mkv
    Формат : Matroska
    Версия формата : Version 4 / Version 2
    Размер файла : 11,7 Гбайт
    Продолжительность : 1 ч. 37 м.
    Общий поток : 17,2 Мбит/сек
    Название фильма : В постели с врагом / Sleeping With the Enemy / 1991 / BDRip -- STarankov
    Дата кодирования : UTC 2014-01-05 11:23:00
    Программа кодирования : mkvmerge v6.6.0 (;The Edge Of The In Between;) built on Dec 1 2013 17:55:00
    Библиотека кодирования : libebml v1.3.0 libmatroska v1.4.1

    Видео
    Идентификатор : 1
    Формат : AVC
    Формат/Информация : Advanced Video Codec
    Профиль формата : High@L4.1
    Параметр CABAC формата : Да
    Параметр ReFrames формата : 4 кадра
    Идентификатор кодека : V_MPEG4/ISO/AVC
    Продолжительность : 1 ч. 37 м.
    Битрейт : 12,4 Мбит/сек
    Ширина : 1920 пикселей
    Высота : 1040 пикселей
    Соотношение сторон : 1,85:1
    Режим частоты кадров : Постоянный
    Частота кадров : 23,976 кадра/сек
    Цветовое пространство : YUV
    Субдискретизация насыщенности : 4:2:0
    Битовая глубина : 8 бит
    Тип развёртки : Прогрессивная
    Бит/(Пиксели*Кадры) : 0.260
    Размер потока : 8,26 Гбайт (70%)
    Библиотека кодирования : x264 core 138 r2358 9e941d1
    Залил: msltel
    Размер скачиваемого торрента: 13.80 GB (14821838399 Bytes)


    В постели с врагом / Sleeping With the Enemy (1991) BDRip 1080p by msltel | D, P, P2, A, L1 торрент скачать бесплатно
    загрузка...
    Рейтинг →
     (голосов: 1, оценка 5/5, голосовать можно 1 раз )

    Другие торренты по теме:

  • В постели с вампиром / To Sleep with a Vampire (1992) DVDRip
  • В постели с врагом / Sleeping With the Enemy (1991) BDRip-AVC от 0ptimus | D, P, P2, A
  • В постели с врагом / Sleeping With the Enemy (1991) BDRip 720p by msltel | D, P, P2, A, L1 скачать через торрент бесплатно
  • В постели с врагом / Sleeping With The Enemy (1991) BDRip-AVC от New-Team | D
  • В постели с Мадонной / Madonna: Truth or Dare (1991) DVDRip | P2 скачать через торрент бесплатно
  • В постели с Викторией / Victoria (2016) WEB-DL 720p | iTunes
  • В постели с Викторией / Victoria (2016) WEB-DL 1080p | iTunes
  • В постели с Мадонной / Madonna: Truth or Dare (1991) BDRip 720p | P2


    • Комментарии (0):

      Информация

      Информация

        Посетители, находящиеся в группе Гости, не могут оставлять комментарии в данной новости.

        ↓ Меню



        ↓ Опрос

        А Вы добавили сайт в закладки?
        Да
        Не


        Top 10 за месяц (Фильмы)