.
Авторизация | Регистрация
Хочешь лучшие торренты? Добавь свой email!
Добавить
» » Шерлок / Sherlock (2014) HDTV 1080i | Первый канал скачать через торрент бесплатно




    Шерлок / Sherlock (2014) HDTV 1080i | Первый канал скачать через торрент бесплатно

    Опубликовал: Админ | Дата: 27-02-2015, 11:09 | Просмотров: 538



    Детально о кино
    Русское название: Шерлок
    Русское название в мировом прокате: Sherlock
    Создали в: 2014
    Категория жанра: Драма, детектив
    Снималось в: Великобритания, Hartswood Films, BBC Wales, Masterpiece Theatre
    Главный режиссер: Пол МакГиган
    Актеры: Бенедикт Камбербэтч, Мартин Фриман, Уна Стаббс, Лу Брили, Руперт Грейвз, Марк Гатисс, Зои Телфорд, Винетт Робинсон, Таня Муди, Джонатан Арис

    Совместная деятельность Шерлока и Джона подвергается испытанию, когда Джон влюбляется в Мэри Морстен. Она - восприимчивая, умная девушка, и демонстрация Холмсом своих талантов не производит на нее никакого впечатления. После смерти Мориарти, Холмс оказывается втянутым в битву с другим умным противником - могущественным Чарльзом Августом Магнуссеном, который держит в руках секреты всего мира. Для Шерлока и Джона снова начинается игра...



    Файл
    Качество фильма: HDTV 1080i
    Информация о видео: MPEG-4 AVC, ~ 6000 Кбит/с, 1920x1080
    Информация о звуке: МР2, 2 ch, 256 Кбит/с
    Время просмотра: ~ 01:30:00
    Перевод текста: Дублированный (Первый Канал)


    MI
    Общее
    Идентификатор : 1 (0x1)
    Полное имя : D:Sherlok.(3.sezon).2014.x264.HDTV.1080i.NikolspupSherlok.(3.sezony.1.seriya.iz.3).2014.x264.HDTV.1080i.Nikolspup.ts
    Формат : MPEG-TS
    Размер файла : 3,86 Гбайт
    Продолжительность : 1 ч. 26 м.
    Режим общего битрейта : Переменный
    Общий поток : 6391 Кбит/сек
    Максимальный общий битрейт : 35,5 Мбит/сек

    Видео
    Идентификатор : 4113 (0x1011)
    Идентификатор меню : 1 (0x1)
    Формат : AVC
    Формат/Информация : Advanced Video Codec
    Профиль формата : High@L4.1
    Параметр CABAC формата : Да
    Параметр ReFrames формата : 3 кадра
    Идентификатор кодека : 27
    Продолжительность : 1 ч. 26 м.
    Вид битрейта : Переменный
    Битрейт : 5817 Кбит/сек
    Максимальный битрейт : 40,0 Мбит/сек
    Ширина : 1920 пикселей
    Высота : 1080 пикселей
    Соотношение сторон : 16:9
    Частота кадров : 25,000 кадров/сек
    Цветовое пространство : YUV
    Субдискретизация насыщенности : 4:2:0
    Битовая глубина : 8 бит
    Тип развёртки : Прогрессивная
    Бит/(Пиксели*Кадры) : 0.112
    Размер потока : 3,52 Гбайт (91%)

    Аудио
    Идентификатор : 4352 (0x1100)
    Идентификатор меню : 1 (0x1)
    Формат : MPEG Audio
    Версия формата : Version 1
    Профиль формата : Layer 2
    Идентификатор кодека : 4
    Продолжительность : 1 ч. 26 м.
    Вид битрейта : Постоянный
    Битрейт : 256 Кбит/сек
    Каналы : 2 канала
    Частота : 48,0 КГц
    Метод сжатия : С потерями
    Размер потока : 159 Мбайт (4%)
    Язык : English

    Залил: DGEKIGAN
    Размер скачиваемого торрента: 3.86 GB (4149795440 Bytes)

    Шерлок / Sherlock (2014) HDTV 1080i | Первый канал скачать через торрент бесплатно
    загрузка...
    Рейтинг →
     (голосов: 1, оценка 5/5, голосовать можно 1 раз )

    Другие торренты по теме:

  • Шерлок / Sherlock (2012) 4xDVD5
  • Том и Джерри: Шерлок Холмс / Tom Jerry Meet Sherlock Holmes (2010) BDRip-AVC | iPad
  • Шерлок Холмс против Джека Потрошителя (2009) PC | Лицензия
  • OST - Шерлок Холмс: Игра теней - Soundtrack (2011) MP3
  • Шерлок Холмс и секрет Ктулху (2007) PC | RePack от R.G. UPG
  • Мемуары Шерлокa Холмсa. Шерлок Холмс присмерти / The Memoirs of Sherlock Holmes.The dying detective (1994) IPTVRip от Generalfilm
  • Шерлок Холмс: Игра теней / Sherlock Holmes: A Game of Shadows (2011) BDRip от HQCLUB | ReRip
  • Шерлок Холмс: Дилогия / Sherlock Holmes: Dilogy (2009-2011) BDRip 1080p


    • Комментарии (0):

      Информация

      Информация

        Посетители, находящиеся в группе Гости, не могут оставлять комментарии в данной новости.

        ↓ Меню



        ↓ Опрос

        А Вы добавили сайт в закладки?
        Да
        Не


        Top 10 за месяц (Фильмы)