.
Авторизация | Регистрация
Хочешь лучшие торренты? Добавь свой email!
Добавить
» » Шерлок / Sherlock (2010-2014) HDTVRip | D скачать через торрент бесплатно




    Шерлок / Sherlock (2010-2014) HDTVRip | D скачать через торрент бесплатно

    Опубликовал: Админ | Дата: 27-02-2015, 11:09 | Просмотров: 342



    Русское название: Шерлок
    Русское название в мировом прокате: Sherlock
    Создали в: 2010-2014
    Категория жанра: Приключения, детектив, триллер
    Главный режиссер: Пол МакГиган
    Актеры: Бенедикт Камбербэтч, Мартин Фриман, Уна Стаббс, Эндрю Скотт, Лара Пулвер, Лу Брили, Руперт Грейвз, Марк Гатисс, Винетт Робинсон, Джонатан Арис, Зои Телфорд, Дэвид Неллист, Филип Дэвис, Шиван Хьюлетт, Уильям Скотт-Мэссон, Виктория Уикс, Шон Янг, Джеймс Дункан, Рут Эверетт, Сайрус Лоу, Кэтрин Теннант-Моу, Бен Грин, Прадип Джей, Имоджен Слотер, Луиз Брекон-Ричардс, Лиза МакАллистер, Стэнли Таунсенд, Питер Брук, Джемма Чан, Аль Уивер, Берти Карвел, Дэниэл Персивал

    Сюжет: События разворачиваются в наши дни. Он прошел Афганистан, остался инвалидом. По возвращению в родные края встречается с загадочным, но своеобразным гениальным человеком. Тот в поиске соседа по квартире. Лондон, 2010 год. Происходят необъяснимые убийства. Скотланд-Ярд без понятия, за что хвататься. Существует лишь один человек, который в силах разрешить проблемы и найти ответы на сложные вопросы.

    Снималось в: США, Chuck Lorre Productions, Warner Bros. Television
    Время просмотра: 146 x ~ 00:20:00
    Перевод текста: Профессиональный одноголосый

    Качество фильма: HDTVRip
    Информация о видео: XviD, ~ 1650 Кбит/с, 720x400
    Информация о звуке rus: AC3, 2 ch, 192 Кбит/с

    Инфо
    Полное имя : D:Sherlok.tahiy1Sherlok.1.serija.tahiy.avi
    Формат : AVI
    Формат/Информация : Audio Video Interleave
    Размер файла : 1,11 Гбайт
    Продолжительность : 1 ч. 28 м.
    Общий поток : 1811 Кбит/сек
    Название фильма : - = Rip by tahiy = -
    Программа кодирования : VirtualDubMod 1.5.10.3 | www.virtualdub-fr.org || (build 2550/release)

    Видео
    Идентификатор : 0
    Формат : MPEG-4 Visual
    Профиль формата : Advanced Simple@L5
    Параметр BVOP формата : 1
    Параметр QPel формата : Нет
    Параметр GMC формата : Без точки перехода
    Параметр матрицы формата : Default (MPEG)
    Идентификатор кодека : XVID
    Идентификатор кодека/Подсказка : XviD
    Продолжительность : 1 ч. 28 м.
    Битрейт : 1609 Кбит/сек
    Ширина : 720 пикселей
    Высота : 400 пикселей
    Соотношение сторон : 16:9
    Частота кадров : 25,000 кадров/сек
    Цветовое пространство : YUV
    Субдискретизация насыщенности : 4:2:0
    Битовая глубина : 8 бит
    Тип развёртки : Прогрессивная
    Метод сжатия : С потерями
    Бит/(Пиксели*Кадры) : 0.223
    Размер потока : 1014 Мбайт (89%)
    Библиотека кодирования : XviD 1.2.1 (UTC 2008-12-04)

    Аудио
    Идентификатор : 1
    Формат : AC-3
    Формат/Информация : Audio Coding 3
    Расширение режима : CM (complete main)
    Параметр Endianness формата : Big
    Идентификатор кодека : 2000
    Продолжительность : 1 ч. 28 м.
    Вид битрейта : Постоянный
    Битрейт : 192 Кбит/сек
    Каналы : 2 канала
    Расположение каналов : Front: L R
    Частота : 48,0 КГц
    Битовая глубина : 16 бит
    Метод сжатия : С потерями
    Размер потока : 121 Мбайт (11%)
    Выравнивание : Разделение по промежуткам
    Продолжительность промежутка : 40 мс. (1,00 видеокадр)
    Время предзагрузки промежутка : 500 мс.
    Список серий
    1 сезон любимого сериала
    01. Этюд в розовых тонах / A Study in Pink
    02. Слепой банкир / The Blind Banker
    03. Большая игра / The Great Game
    2 сезон любимого сериала
    01. Скандал в Высшем свете / A Scandal in Belgravia
    02. Собаки Баскервиля / The Hounds of Baskerville
    03. Рейхенбахский Водопад / The Reichenbach Fall
    3 сезон любимого сериала
    01. Пустой гроб / The Empty Hearse





    Внимание! Раздача ведётся путём добавления новых серий!

    Внимание! Раздача ведётся путём добавления новых серий; при каждом добавлении создаётся новый торрент. Чтобы начать докачку новой серии, пользователям необходимо сделать следующее: (1) остановить скачивание, (2) удалить старый торрент у себя из клиента (старые серии удалять не надо), (3) скачать новый торрент и запустить его у себя в клиенте вместо старого, при этом указать клиенту путь в старую папку куда и должно происходить скачивание новых серий.

    Ваш клиент при этом должен произвести хеширование (проверку) старой папки (если не производит сам - помогите ему сделать это), и будет докачивать только те серии которых у вас ещё нет. Старые серии при этом не удаляются, а продолжают раздаваться!

    Eсли вы уже удалили старые серии, то предотвратить повторную закачку старых серий можно, отжав галочку в соответсвующих местах при запуске нового торрента.

    Размер скачиваемого торрента: 7.81 GB (8384294912 Bytes)

    Шерлок / Sherlock (2010-2014) HDTVRip | D скачать через торрент бесплатно
    загрузка...
    Рейтинг →
     (голосов: 1, оценка 4/5, голосовать можно 1 раз )

    Другие торренты по теме:

  • Шерлок / Sherlock (2012) 4xDVD5
  • Том и Джерри: Шерлок Холмс / Tom Jerry Meet Sherlock Holmes (2010) BDRip-AVC | iPad
  • Шерлок Холмс против Джека Потрошителя (2009) PC | Лицензия
  • OST - Шерлок Холмс: Игра теней - Soundtrack (2011) MP3
  • Шерлок Холмс и секрет Ктулху (2007) PC | RePack от R.G. UPG
  • Мемуары Шерлокa Холмсa. Шерлок Холмс присмерти / The Memoirs of Sherlock Holmes.The dying detective (1994) IPTVRip от Generalfilm
  • Шерлок Холмс: Игра теней / Sherlock Holmes: A Game of Shadows (2011) BDRip от HQCLUB | ReRip
  • Шерлок Холмс: Дилогия / Sherlock Holmes: Dilogy (2009-2011) BDRip 1080p


    • Комментарии (0):

      Информация

      Информация

        Посетители, находящиеся в группе Гости, не могут оставлять комментарии в данной новости.

        ↓ Меню



        ↓ Опрос

        А Вы добавили сайт в закладки?
        Да
        Не


        Top 10 за месяц (Фильмы)