.
Авторизация | Регистрация
Хочешь лучшие торренты? Добавь свой email!
Добавить
» » Акробат / Lacrobate (1941) DVDRip - от NovaLan скачать торрент бесплатно




    Акробат / Lacrobate (1941) DVDRip - от NovaLan скачать торрент бесплатно

    Опубликовал: Админ | Дата: 27-02-2015, 11:09 | Просмотров: 314




    Снималось в: Франция
    Создали в: Les Films Harl?
    Категория жанра: Комедия
    Создали в: 1941

    Время просмотра: 01:20:10


    Перевод текста: Авторский (Карповский)

    Оригинальная аудиодорожка: Французская

    Главный режиссер: Жан Буайе


    Актеры: Фернандель, Жан Тиссье, Тереза Дорни, Марсель Карпентье, Жан Брошар, Полетт Бергер, Люсьен Калламан, Пьер Лабри, Фернан Фламен, Николас Амато


    Сюжет: Комедия о метродотеле-зануде с мерзким характером, который внезапно потерял память, в связи с чем, масса народу захотела использовать это в своих целях.



    Исходник: DVD5 R1

    Тип релиза: DVDRip

    Контейнер: AVI


    Информация о видео: 704x528 (1.33:1), 23.976 fps, XviD ~2044 kbps avg, 0.23 bit/pixel
    Информация о звуке: #1: 48 kHz, AC3 2.0 ~192.00 kbps avg (RUS)
    Информация о звуке: #2: 48 kHz, AC3 2.0 ~192.00 kbps avg (FRA)


    MediaInfo
    General
    Полное имя : D:1ААААкробат.avi
    Формат : AVI
    Формат/Информация : Audio Video Interleave
    Размер файла : 1.37 GiB
    Продолжительность : 1h 20mn
    Общий поток : 2 444 Kbps
    Программа кодирования : VirtualDubMod 1.5.10.2 (build 2540/release)
    Библиотека кодирования : VirtualDubMod build 2540/release

    Video
    Идентификатор : 0
    Формат : MPEG-4 Visual
    Профиль формата : Advanced Simple@L5
    Параметр BVOP формата : 2
    Параметр QPel формата : No
    Параметр GMC формата : No warppoints
    Параметр матрицы формата : Default (MPEG)
    Режим смешивания : Packed bitstream
    Идентификатор кодека : XVID
    Идентификатор кодека/Подсказка : XviD
    Продолжительность : 1h 20mn
    Битрейт : 2 045 Kbps
    Ширина : 704 pixels
    Высота : 528 pixels
    Соотношение сторон : 4:3
    Частота кадров : 23.976 fps
    Цветовое пространство : YUV
    Субдискретизация насыщенности : 4:2:0
    Битовая глубина : 8 bits
    Тип развёртки : Progressive
    Метод сжатия : Lossy
    Бит/(Пиксели*Кадры) : 0.229
    Размер потока : 1.15 GiB (84%)
    Библиотека кодирования : XviD 1.2.1 (UTC 2008-12-04)

    Audio #1
    Идентификатор : 1
    Формат : AC-3
    Формат/Информация : Audio Coding 3
    Расширение режима : CM (complete main)
    Параметр Endianness формата : Big
    Идентификатор кодека : 2000
    Продолжительность : 1h 20mn
    Вид битрейта : Constant
    Битрейт : 192 Kbps
    Каналы : 2 channels
    Расположение каналов : Front: L R
    Частота : 48.0 KHz
    Битовая глубина : 16 bits
    Метод сжатия : Lossy
    Размер потока : 110 MiB (8%)
    Выравнивание : Split accross interleaves
    Продолжительность промежутка : 42 ms (1.00 video frame)
    Время предзагрузки промежутка : 500 ms

    Audio #2
    Идентификатор : 2
    Формат : AC-3
    Формат/Информация : Audio Coding 3
    Режим : Dual Mono
    Расширение режима : CM (complete main)
    Параметр Endianness формата : Big
    Идентификатор кодека : 2000
    Продолжительность : 1h 20mn
    Вид битрейта : Constant
    Битрейт : 192 Kbps
    Каналы : 2 channels
    Расположение каналов : Front: L R
    Частота : 48.0 KHz
    Битовая глубина : 16 bits
    Метод сжатия : Lossy
    Размер потока : 110 MiB (8%)
    Выравнивание : Split accross interleaves
    Продолжительность промежутка : 42 ms (1.00 video frame)
    Время предзагрузки промежутка : 500 ms







    Скриншоты для ознакомления




    Релиз группа:

    Автор рипа:
    Залил: YArl
    Размер скачиваемого торрента: 1.37 GB (1469122560 Bytes)

    Акробат / Lacrobate (1941) DVDRip - от NovaLan торрент скачать бесплатно
    загрузка...
    Рейтинг →
     (голосов: 1, оценка 5/5, голосовать можно 1 раз )

    Другие торренты по теме:



      Комментарии (0):

      Информация

      Информация

        Посетители, находящиеся в группе Гости, не могут оставлять комментарии в данной новости.

        ↓ Меню



        ↓ Опрос

        А Вы добавили сайт в закладки?
        Да
        Не


        Top 10 за месяц (Фильмы)