.
Авторизация | Регистрация
Хочешь лучшие торренты? Добавь свой email!
Добавить
» » Мятеж на Баунти / Mutiny on the Bounty (1935) HDRip - от NovaLan скачать торрент бесплатно




    Мятеж на Баунти / Mutiny on the Bounty (1935) HDRip - от NovaLan скачать торрент бесплатно

    Опубликовал: Админ | Дата: 27-02-2015, 11:09 | Просмотров: 488




    Снималось в: США
    Создали в: Metro-Goldwyn-Mayer
    Категория жанра: Приключения
    Создали в: 1935

    Время просмотра: 02:12:40


    Перевод текста: Профессиональный многоголосый, профессиональный двухголосый

    Оригинальная аудиодорожка: Английская


    Главный режиссер: Фрэнк Ллойд


    Актеры: Чарльз Лотон, Кларк Гейбл, Франшо Тоун, Герберт Мандин, Эдди Куиллан, Дадли Диггес, Дональд Крисп, Генри Стефенсон, Фрэнсис Листер, Спринг Байинтон, Дэвид Торренс


    Сюжет: 1789 год. Экипаж британского корабля Баунти под руководством жестокого капитана Блая наполнив трюмы, отчаливает от берегов Таити. До этого дня в течение шести месяцев команда корабля подвергалась физическим и моральным издевательствам со стороны капитана и его приспешников. Изнурительная работа и отсутствие пищи вынуждают моряков поднять бунт. Зачинщиком мятежа становится матрос, аристократ Кристиан Флетчер. Ссадив с корабля капитана и преданных ему людей, Баунти взял курс обратно на Таити, именно там Флетчер и другие мятежники решили провести всю оставшуюся жизнь…



    Исходник: BDRip 720p

    Тип релиза: HDRip

    Контейнер: AVI


    Информация о видео: 704x512 (1.38:1), 23.976 fps, XviD ~1455 kbps avg, 0.17 bit/pixel
    Информация о звуке: #1: 48 kHz, AC3 2.0 ~192.00 kbps avg (RUS) Профессиональный многоголосый - DVD-Classic
    Информация о звуке: #2: 48 kHz, AC3 2.0 ~192.00 kbps avg (RUS) Профессиональный многоголосый - Светла
    Информация о звуке: #3: 48 kHz, AC3 2.0 ~192.00 kbps avg (RUS) Профессиональный многоголосый - Феникс
    Информация о звуке: #4: 48 kHz, AC3 2.0 ~192.00 kbps avg (RUS) Профессиональный двухголосый - Видеобаза
    Информация о звуке: #5: 48 kHz, AC3 1.0 ~128.00 kbps avg (ENG)

    Перевод

    1. Профессиональный многоголосый - DVD-Classic
    2. Профессиональный многоголосый - Светла
    3. Профессиональный многоголосый - Феникс
    4. Профессиональный двухголосый - Видеобаза




    MediaInfo
    Общее
    Полное имя : D:1АААМятеж на Баунти.avi
    Формат : AVI
    Формат/Информация : Audio Video Interleave
    Профиль формата : OpenDML
    Размер файла : 2,19 Гбайт
    Продолжительность : 2 ч. 12 м.
    Общий поток : 2358 Кбит/сек
    Программа кодирования : VirtualDubMod 1.5.10.2 (build 2540/release)
    Библиотека кодирования : VirtualDubMod build 2540/release

    Видео
    Идентификатор : 0
    Формат : MPEG-4 Visual
    Профиль формата : Advanced Simple@L5
    Параметр BVOP формата : 2
    Параметр QPel формата : Нет
    Параметр GMC формата : Без точки перехода
    Параметр матрицы формата : Default (MPEG)
    Режим смешивания : Сжатый битовый поток
    Идентификатор кодека : XVID
    Идентификатор кодека/Подсказка : XviD
    Продолжительность : 2 ч. 12 м.
    Битрейт : 1426 Кбит/сек
    Ширина : 704 пикселя
    Высота : 512 пикселей
    Соотношение сторон : 1,375
    Частота кадров : 23,976 кадра/сек
    Цветовое пространство : YUV
    Субдискретизация насыщенности : 4:2:0
    Битовая глубина : 8 бит
    Тип развёртки : Прогрессивная
    Метод сжатия : С потерями
    Бит/(Пиксели*Кадры) : 0.165
    Размер потока : 1,32 Гбайт (60%)
    Библиотека кодирования : XviD 1.2.1 (UTC 2008-12-04)

    Аудио #1
    Идентификатор : 1
    Формат : AC-3
    Формат/Информация : Audio Coding 3
    Расширение режима : CM (complete main)
    Параметр Endianness формата : Big
    Идентификатор кодека : 2000
    Продолжительность : 2 ч. 12 м.
    Вид битрейта : Постоянный
    Битрейт : 192 Кбит/сек
    Каналы : 2 канала
    Расположение каналов : Front: L R
    Частота : 48,0 КГц
    Битовая глубина : 16 бит
    Метод сжатия : С потерями
    Размер потока : 182 Мбайт (8%)
    Выравнивание : Разделение по промежуткам
    Продолжительность промежутка : 42 мс. (1,00 видеокадр)
    Время предзагрузки промежутка : 500 мс.

    Аудио #2
    Идентификатор : 2
    Формат : AC-3
    Формат/Информация : Audio Coding 3
    Расширение режима : CM (complete main)
    Параметр Endianness формата : Big
    Идентификатор кодека : 2000
    Продолжительность : 2 ч. 12 м.
    Вид битрейта : Постоянный
    Битрейт : 192 Кбит/сек
    Каналы : 2 канала
    Расположение каналов : Front: L R
    Частота : 48,0 КГц
    Битовая глубина : 16 бит
    Метод сжатия : С потерями
    Размер потока : 182 Мбайт (8%)
    Выравнивание : Разделение по промежуткам
    Продолжительность промежутка : 42 мс. (1,00 видеокадр)
    Время предзагрузки промежутка : 500 мс.

    Аудио #3
    Идентификатор : 3
    Формат : AC-3
    Формат/Информация : Audio Coding 3
    Расширение режима : CM (complete main)
    Параметр Endianness формата : Big
    Идентификатор кодека : 2000
    Продолжительность : 2 ч. 12 м.
    Вид битрейта : Постоянный
    Битрейт : 192 Кбит/сек
    Каналы : 2 канала
    Расположение каналов : Front: L R
    Частота : 48,0 КГц
    Битовая глубина : 16 бит
    Метод сжатия : С потерями
    Размер потока : 182 Мбайт (8%)
    Выравнивание : Разделение по промежуткам
    Продолжительность промежутка : 42 мс. (1,00 видеокадр)
    Время предзагрузки промежутка : 500 мс.

    Аудио #4
    Идентификатор : 4
    Формат : AC-3
    Формат/Информация : Audio Coding 3
    Расширение режима : CM (complete main)
    Параметр Endianness формата : Big
    Идентификатор кодека : 2000
    Продолжительность : 2 ч. 12 м.
    Вид битрейта : Постоянный
    Битрейт : 192 Кбит/сек
    Каналы : 2 канала
    Расположение каналов : Front: L R
    Частота : 48,0 КГц
    Битовая глубина : 16 бит
    Метод сжатия : С потерями
    Размер потока : 182 Мбайт (8%)
    Выравнивание : Разделение по промежуткам
    Продолжительность промежутка : 42 мс. (1,00 видеокадр)
    Время предзагрузки промежутка : 500 мс.

    Аудио #5
    Идентификатор : 5
    Формат : AC-3
    Формат/Информация : Audio Coding 3
    Расширение режима : CM (complete main)
    Параметр Endianness формата : Big
    Идентификатор кодека : 2000
    Продолжительность : 2 ч. 12 м.
    Вид битрейта : Постоянный
    Битрейт : 128 Кбит/сек
    Каналы : 1 канал
    Расположение каналов : Front: C
    Частота : 48,0 КГц
    Битовая глубина : 16 бит
    Метод сжатия : С потерями
    Размер потока : 121 Мбайт (5%)
    Выравнивание : Разделение по промежуткам
    Продолжительность промежутка : 42 мс. (1,00 видеокадр)
    Время предзагрузки промежутка : 500 мс.







    Скриншоты для ознакомления




    Релиз группа:

    Автор рипа:
    Залил: YArl
    Размер скачиваемого торрента: 2.19 GB (2346606592 Bytes)

    Мятеж на Баунти / Mutiny on the Bounty (1935) HDRip - от NovaLan торрент скачать бесплатно
    загрузка...
    Рейтинг →
     (голосов: 1, оценка 3/5, голосовать можно 1 раз )

    Другие торренты по теме:

  • Мятеж на Баунти / Mutiny on the Bounty (1962) HDRip от HQ-ViDEO


    • Комментарии (0):

      Информация

      Информация

        Посетители, находящиеся в группе Гости, не могут оставлять комментарии в данной новости.

        ↓ Меню



        ↓ Опрос

        А Вы добавили сайт в закладки?
        Да
        Не


        Top 10 за месяц (Фильмы)