.
Авторизация | Регистрация
Хочешь лучшие торренты? Добавь свой email!
Добавить
» » Прожить жизнь с Пикассо / Surviving Picasso (1996) DVDRip | D скачать через торрент бесплатно




    Прожить жизнь с Пикассо / Surviving Picasso (1996) DVDRip | D скачать через торрент бесплатно

    Опубликовал: Админ | Дата: 27-02-2015, 11:09 | Просмотров: 426



    Детально о кино
    Русское название: Прожить жизнь с Пикассо
    Русское название в мировом прокате: Surviving Picasso
    Создали в: 1996
    Категория жанра: драма, мелодрама, биография
    Главный режиссер: Джеймс Айвори / James Ivory
    Актеры: Энтони Хопкинс, Наташа МакЭлхоун, Джулианна Мур, Джосс Экленд, Деннис Буцикарис, Питер Айр, Питер Герети, Сюзанна Харкер, Джейн Лапотэйр, Джозеф Маэр

    Сюжет фильма:
    Холст, краски, металл, керамика. Они были послушны воле этого выдающегося художника XX века. Но что известно о другой великой страсти легендарного Пабло Пикассо? Была ли любовь также подчинена его гению?



    Снималось в: США
    Киностудия: Warner Bros.
    Время просмотра: 02:00:16
    Перевод текста: Профессиональный (дублированный)

    Файл
    Кодек для видео: XviD / AC-3
    Качество фильма: DVDRip
    Информация о видео: XviD, 720x400 (16:9), 25.000 fps, 1 533 Kbps (0.213 bit/pixel)
    Информация о звуке: AC-3, 48.0 KHz, 2 ch, 192 Kbps, CBR (Russian)

    Скриншоты для ознакомления
    Screenshots
    MediaInfo
    General
    Complete name : /Surviving.Picasso_DVDRip.Rus.DUB.1400.avi
    Format : AVI
    Format/Info : Audio Video Interleave
    File size : 1.46 GiB
    Duration : 2h 0mn
    Overall bit rate : 1 732 Kbps
    Writing application : VirtualDubMod 1.5.4.1 (build 2178/release)
    Writing library : VirtualDubMod build 2178/release

    Video
    ID : 0
    Format : MPEG-4 Visual
    Format profile : Advanced Simple@L5
    Format settings, BVOP : 1
    Format settings, QPel : No
    Format settings, GMC : No warppoints
    Format settings, Matrix : Custom
    Codec ID : XVID
    Codec ID/Hint : XviD
    Duration : 2h 0mn
    Bit rate : 1 533 Kbps
    Width : 720 pixels
    Height : 400 pixels
    Display aspect ratio : 16:9
    Frame rate : 25.000 fps
    Color space : YUV
    Chroma subsampling : 4:2:0
    Bit depth : 8 bits
    Scan type : Progressive
    Compression mode : Lossy
    Bits/(Pixel*Frame) : 0.213
    Stream size : 1.29 GiB (89%)
    Writing library : XviD 65

    Audio
    ID : 1
    Format : AC-3
    Format/Info : Audio Coding 3
    Mode extension : CM (complete main)
    Format settings, Endianness : Big
    Codec ID : 2000
    Duration : 2h 0mn
    Bit rate mode : Constant
    Bit rate : 192 Kbps
    Channel(s) : 2 channels
    Channel positions : Front: L R
    Sampling rate : 48.0 KHz
    Bit depth : 16 bits
    Compression mode : Lossy
    Stream size : 165 MiB (11%)
    Alignment : Split accross interleaves
    Interleave, duration : 96 ms (2.40 video frames)
    Interleave, preload duration : 96 ms
    Language : Russian

    Размер скачиваемого торрента: 1.46 GB (1562632192 Bytes)

    Прожить жизнь с Пикассо / Surviving Picasso (1996) DVDRip | D скачать через торрент бесплатно
    загрузка...
    Рейтинг →
     (голосов: 1, оценка 3/5, голосовать можно 1 раз )

    Другие торренты по теме:

  • Прожить жизнь с Пикассо / Surviving Picasso (1996) DVDRip скачать через торрент бесплатно
  • Как прожить с родителями всю оставшуюся жизнь / How to Live with Your Parents (For the Rest of Your Life) (2013) HDTV-Rip | Гараж Дубляж


    • Комментарии (0):

      Информация

      Информация

        Посетители, находящиеся в группе Гости, не могут оставлять комментарии в данной новости.

        ↓ Меню



        ↓ Опрос

        А Вы добавили сайт в закладки?
        Да
        Не


        Top 10 за месяц (Фильмы)