.
Авторизация | Регистрация
Хочешь лучшие торренты? Добавь свой email!
Добавить
» » Красивая жизнь / Как разобраться с делами / Taking Care of Business (1990) WEB-DLRip от Leon-masl скачать торрент бесплатно




    Красивая жизнь / Как разобраться с делами / Taking Care of Business (1990) WEB-DLRip от Leon-masl скачать торрент бесплатно

    Опубликовал: Админ | Дата: 27-02-2015, 11:09 | Просмотров: 361



    Детально о кино
    Русское название: Красивая жизнь / Как разобраться с делами
    Русское название в мировом прокате: Taking Care of Business
    Создали в: 1990
    Категория жанра: комедия
    Главный режиссер: Артур Хиллер / Arthur Hiller
    Актеры: Джеймс Белуши, Чарльз Гродин, Энн Де Сальво, Лорин Локлин, Стивен Эллиот, Гектор Элизондо, Вероника Хамель, Мако, Гейтс МакФэдден, Джон де Ланси, Кен Фори, Крис Барнс, Джилл Джонсон, Том Нолан, Сэльма Арчерд, Джанет Джулиан

    Сюжет фильма:
    Что может означать для преуспевающего бизнесмена потеря органайзера со всеми кредитными карточками, наличными деньгами и ключами от особняка в Малибу? Именно это предстоит выяснить Спенсеру Барнсу, преуспевающему рекламному менеджеру.
    Но настоящие неприятности для него начинаются тогда, когда его органайзер попадает в руки сбежавшего из тюрьмы Джимми Дворски, который проводит больше времени в заключении, чем на свободе. С этого момента жизнь обоих настолько круто меняется, что дух захватывает.




    Снималось в: США
    Киностудия: Hollywood Pictures, Silver Screen Partners IV
    Время просмотра: 01:48:02
    Перевод текста: Профессиональный (многоголосый закадровый) ОРТ

    Файл
    Кодек для видео: XviD
    Качество фильма: WEB-DLRip
    Информация о видео: 720 x 400, 23,976 kbps, 1732 kbps
    Информация о звуке: AC3, 2.0 ch, 192 kbps, 48 kHz
    MI
    Общее
    Полное имя : Красивая жизнь 1990.WEB-DLRip.avi
    Формат : AVI
    Формат/Информация : Audio Video Interleave
    Размер файла : 1,46 Гбайт
    Продолжительность : 1 ч. 48 м.
    Общий поток : 1933 Кбит/сек
    Программа кодирования : VirtualDubMod 1.5.10.2 (build 2542/release)
    Библиотека кодирования : VirtualDubMod build 2542/release

    Видео
    Идентификатор : 0
    Формат : MPEG-4 Visual
    Профиль формата : Advanced Simple@L5
    Параметр BVOP формата : 2
    Параметр QPel формата : Нет
    Параметр GMC формата : Без точки перехода
    Параметр матрицы формата : Выборочная
    Идентификатор кодека : XVID
    Идентификатор кодека/Подсказка : XviD
    Продолжительность : 1 ч. 48 м.
    Битрейт : 1732 Кбит/сек
    Ширина : 720 пикс.
    Высота : 400 пикс.
    Соотношение сторон : 16:9
    Частота кадров : 23,976 кадр/сек
    Цветовое пространство : YUV
    Подвыборка цветности : 4:2:0
    Битовая глубина : 8 бит
    Тип развёртки : Прогрессивная
    Метод сжатия : С потерями
    Бит/(Пиксели*Кадры) : 0.251
    Размер потока : 1,31 Гбайт (90%)
    Библиотека кодирования : XviD 73

    Аудио
    Идентификатор : 1
    Формат : AC-3
    Формат/Информация : Audio Coding 3
    Расширение режима : CM (complete main)
    Идентификатор кодека : 2000
    Продолжительность : 1 ч. 48 м.
    Вид битрейта : Постоянный
    Битрейт : 192 Кбит/сек
    Канал(ы) : 2 канала(ов)
    Расположение каналов : Front: L R
    Частота : 48,0 КГц
    Битовая глубина : 16 бит
    Метод сжатия : С потерями
    Размер потока : 148 Мбайт (10%)
    Выравнивание : Разделение по промежуткам
    Продолжительность промежутка : 42 мс. (1,00 видеокадр)
    Время предзагрузки промежутка : 500 ms
    Скриншоты для ознакомления


    Релиз подготовил: Leon-masl
    Залил: leon-masl
    Размер скачиваемого торрента: 1.46 GB (1566689280 Bytes)

    Красивая жизнь / Как разобраться с делами / Taking Care of Business (1990) WEB-DLRip от Leon-masl торрент скачать бесплатно
    загрузка...
    Рейтинг →
     (голосов: 1, оценка 4/5, голосовать можно 1 раз )

    Другие торренты по теме:

  • Красивая жизнь / Как разобраться с делами / Taking Care of Business (1990) WEB-DLRip скачать через торрент бесплатно
  • Красивая жизнь (1-3 серии из 20)
  • Красивая жизнь (2014) HDTV 1080i от MediaClub
  • Красивая жизнь (2014) HDTVRip от Files-x
  • Красивая жизнь (1-11 серии из 20) скачать через торрент бесплатно
  • Красивая жизнь (1-14 серии из 20)
  • Красивая жизнь (1-20 серии из 20) скачать через торрент бесплатно
  • Кеша: Моя безумная красивая жизнь / Ke$ha: My Crazy Beautiful Life (2013) HDTV 1080i | Sub


    • Комментарии (0):

      Информация

      Информация

        Посетители, находящиеся в группе Гости, не могут оставлять комментарии в данной новости.

        ↓ Меню



        ↓ Опрос

        А Вы добавили сайт в закладки?
        Да
        Не


        Top 10 за месяц (Фильмы)