.
Авторизация | Регистрация
Хочешь лучшие торренты? Добавь свой email!
Добавить
» » Большое ограбление / The Big Job (1965) DVDRip | A скачать торрент бесплатно




    Большое ограбление / The Big Job (1965) DVDRip | A скачать торрент бесплатно

    Опубликовал: Админ | Дата: 27-02-2015, 11:09 | Просмотров: 333




    Снималось в: Великобритания
    Создали в: Optimum Home Entertainmen
    Категория жанра: Комедия
    Создали в: 1965
    Время просмотра: 01:25:02
    Перевод текста: Авторский (Яковлев)
    Оригинальная аудиодорожка:Английская
    Главный режиссер: Джералд Томас
    Актеры: Сид Джеймс, Сильвия Симс, Дик Эмери, Джоан Симс, Лэнс Персивал, Джим Дэйл, Эдина Ронай, Дерик Гайлер, Реджинальд Бекуив, Майкл Уорд

    Сюжет: Бригада грабителей банков была поймана на очередном ограблении и приговорена к 15 годам тюрьмы. Добычу они успели спрятать. И вот, спустя 15 лет, выйдя на свободу они ринулись за награбленным. Дерево, в котором были спрятаны деньги, осталось целым, но вот незадача, местность застроили и теперь оно стоит во дворе полицейского участка.


    Исходник: DVD5 R2
    Тип релиза: DVDRip
    Контейнер: AVI
    Информация о видео: 720x400 (1.80:1), 23.976 fps, XviD ~1844 kbps avg, 0.27 bit/pixel
    Информация о звуке: #1: 48 kHz, AC3 2.0 ~224.00 kbps avg (RUS)
    Информация о звуке: #2: 48 kHz, AC3 2.0 ~224.00 kbps avg (ENG)

    MediaInfo
    Общее
    Полное имя : D:1АААБольшое ограбление.avi
    Формат : AVI
    Формат/Информация : Audio Video Interleave
    Размер файла : 1,37 Гбайт
    Продолжительность : 1 ч. 25 м.
    Общий поток : 2307 Кбит/сек
    Программа кодирования : VirtualDubMod 1.5.10.2 (build 2540/release)
    Библиотека кодирования : VirtualDubMod build 2540/release

    Видео
    Идентификатор : 0
    Формат : MPEG-4 Visual
    Профиль формата : Advanced Simple@L5
    Параметр BVOP формата : 2
    Параметр QPel формата : Нет
    Параметр GMC формата : Без точки перехода
    Параметр матрицы формата : Default (MPEG)
    Режим смешивания : Сжатый битовый поток
    Идентификатор кодека : XVID
    Идентификатор кодека/Подсказка : XviD
    Продолжительность : 1 ч. 25 м.
    Битрейт : 1845 Кбит/сек
    Ширина : 720 пикселей
    Высота : 400 пикселей
    Соотношение сторон : 16:9
    Частота кадров : 23,976 кадра/сек
    Цветовое пространство : YUV
    Субдискретизация насыщенности : 4:2:0
    Битовая глубина : 8 бит
    Тип развёртки : Прогрессивная
    Метод сжатия : С потерями
    Бит/(Пиксели*Кадры) : 0.267
    Размер потока : 1,10 Гбайт (80%)
    Библиотека кодирования : XviD 1.2.1 (UTC 2008-12-04)

    Аудио #1
    Идентификатор : 1
    Формат : AC-3
    Формат/Информация : Audio Coding 3
    Расширение режима : CM (complete main)
    Параметр Endianness формата : Big
    Идентификатор кодека : 2000
    Продолжительность : 1 ч. 25 м.
    Вид битрейта : Постоянный
    Битрейт : 224 Кбит/сек
    Каналы : 2 канала
    Расположение каналов : Front: L R
    Частота : 48,0 КГц
    Битовая глубина : 16 бит
    Метод сжатия : С потерями
    Размер потока : 136 Мбайт (10%)
    Выравнивание : Разделение по промежуткам
    Продолжительность промежутка : 42 мс. (1,00 видеокадр)
    Время предзагрузки промежутка : 500 мс.

    Аудио #2
    Идентификатор : 2
    Формат : AC-3
    Формат/Информация : Audio Coding 3
    Расширение режима : CM (complete main)
    Параметр Endianness формата : Big
    Идентификатор кодека : 2000
    Продолжительность : 1 ч. 25 м.
    Вид битрейта : Постоянный
    Битрейт : 224 Кбит/сек
    Каналы : 2 канала
    Расположение каналов : Front: L R
    Частота : 48,0 КГц
    Битовая глубина : 16 бит
    Метод сжатия : С потерями
    Размер потока : 136 Мбайт (10%)
    Выравнивание : Разделение по промежуткам
    Продолжительность промежутка : 42 мс. (1,00 видеокадр)
    Время предзагрузки промежутка : 500 мс.
    Скриншоты для ознакомления






    Релиз группа:
    Автор рипа:
    Залил: YArl
    Размер скачиваемого торрента: 1.37 GB (1471275008 Bytes)

    Большое ограбление / The Big Job (1965) DVDRip | A торрент скачать бесплатно
    загрузка...
    Рейтинг →
     (голосов: 1, оценка 5/5, голосовать можно 1 раз )

    Другие торренты по теме:

  • Большое ограбление банды Ольсена / Olsen Bandens store kup (1972) BDRip-AVC от Тorrent-Хzona
  • Большое ограбление поезда / The First Great Train Robbery
  • Большое ограбление поезда / The First Great Train Robbery (1979) BDRip 1080p by msltel | P, P2, A
  • Большое ограбление / The Big Job (1965) DVDRip от Dego | A
  • Большое скандинавское ограбление / Nokas (2010) HDRip


    • Комментарии (0):

      Информация

      Информация

        Посетители, находящиеся в группе Гости, не могут оставлять комментарии в данной новости.

        ↓ Меню



        ↓ Опрос

        А Вы добавили сайт в закладки?
        Да
        Не


        Top 10 за месяц (Фильмы)