.
Авторизация | Регистрация
Хочешь лучшие торренты? Добавь свой email!
Добавить
» » Пятница / Friday (1995) BDRip от New-Team | P | Режиссерская версия скачать торрент бесплатно




    Пятница / Friday (1995) BDRip от New-Team | P | Режиссерская версия скачать торрент бесплатно

    Опубликовал: Админ | Дата: 27-02-2015, 11:09 | Просмотров: 298


    Снималось в: США
    Создали в: New Line Cinema, Priority Films (I)

    Категория жанра: драма, комедия
    Создали в: 1995
    Время просмотра: 01:37:06

    Перевод текста: Профессиональный (многоголосый закадровый) (РТР)
    Оригинальная аудиодорожка: нет
    Субтитры подготовлены: нет

    Главный режиссер: Ф. Гэри Грей / F. Gary Gray

    Актеры:
    Айс Кьюб, Крис Такер, Ниа Лонг, Том ’Тайни’ Листер мл., Джон Уизерспун, Анна Мария Хорсфорд, Реджина Кинг, Пола Джей Паркер, Фэйзон Лав, Ди-Джей Пух...

    Сюжет:
    Забавная бытовая комедия, действие которой происходит в пятницу в одном из районов Лос-Анджелеса — Южном Централе. Крэйг и Смоки — два приятеля, любящих посидеть вечерком на пороге своего дома, выпить, покурить, поглазеть на улицу.
    Но сегодня у них возникла одна проблема: взяв на продажу порцию травки, они не удержались и раскурили ее сами. Но за удовольствие надо платить — к 10 часам вечера им необходимого раздобыть 200 долларов, чтобы отдать их наркодилеру…




    Исходник: BDRemux 1080p
    Тип релиза: BDRip
    Контейнер: AVI

    Информация о видео: 656x368 (16:9), 23,976 fps, XviD ~ 936 kbps avg, 0.162 bit/pixel
    Информация о звуке: 48 kHz, MP3 2.0, 128 kbps

    Раздача от:
    MediaInfo

    Общее
    Полное имя : Pyatnica.1995.BDRip-745_New-team_by_AVP_Studio.avi
    Формат : AVI
    Формат/Информация : Audio Video Interleave
    Размер файла : 745 Мбайт
    Продолжительность : 1 ч. 37 м.
    Общий поток : 1073 Кбит/сек
    Программа кодирования : VirtualDubModRus 1.5.10.2 (build 2542/release)
    Библиотека кодирования : VirtualDubMod build 2542/release

    Видео
    Идентификатор : 0
    Формат : MPEG-4 Visual
    Профиль формата : Advanced Simple@L5
    Параметр BVOP формата : 1
    Параметр QPel формата : Нет
    Параметр GMC формата : Без точки перехода
    Параметр матрицы формата : Выборочная
    Идентификатор кодека : XVID
    Идентификатор кодека/Подсказка : XviD
    Продолжительность : 1 ч. 37 м.
    Битрейт : 936 Кбит/сек
    Ширина : 656 пикселей
    Высота : 368 пикселей
    Соотношение сторон : 16:9
    Частота кадров : 23,976 кадра/сек
    Цветовое пространство : YUV
    Субдискретизация насыщенности : 4:2:0
    Битовая глубина : 8 бит
    Тип развёртки : Прогрессивная
    Метод сжатия : С потерями
    Бит/(Пиксели*Кадры) : 0.162
    Размер потока : 650 Мбайт (87%)
    Библиотека кодирования : XviD 73

    Аудио
    Идентификатор : 1
    Формат : MPEG Audio
    Версия формата : Version 1
    Профиль формата : Layer 3
    Идентификатор кодека : 55
    Идентификатор кодека/Подсказка : MP3
    Продолжительность : 1 ч. 37 м.
    Вид битрейта : Постоянный
    Битрейт : 128 Кбит/сек
    Каналы : 2 канала
    Частота : 48,0 КГц
    Метод сжатия : С потерями
    Размер потока : 88,9 Мбайт (12%)
    Выравнивание : Соединение по промежуткам
    Продолжительность промежутка : 42 мс. (1,00 видеокадр)
    Время предзагрузки промежутка : 504 мс.
    Библиотека кодирования : LAME3.99r
    Залил: AVPStudio
    Размер скачиваемого торрента: 745.24 MB (781440495 Bytes)


    Пятница / Friday (1995) BDRip от New-Team | P | Режиссерская версия торрент скачать бесплатно
    загрузка...
    Рейтинг →
     (голосов: 1, оценка 3/5, голосовать можно 1 раз )

    Другие торренты по теме:

  • Слава Богу, сегодня пятница / Thank God Its Friday (1978) DVDRip-AVC
  • OST - Пятница, 13-е / Friday the 13th (2009) MP3
  • Пятница 13-е / Friday the 13th (2009) HDRip-AVC | Расширенная Убийственная Версия
  • OST - Чумовая пятница / Freaky Friday (2003) MP3
  • Пятница 13 Часть 2 / Friday the 13th Part 2 (1981) BDRip от HQ-ViDEO
  • Пятница 13 Часть 3 / Friday the 13th Part III (1982) BDRip от HQ-ViDEO
  • Идеальная пятница / Perfect Friday (1970) HDRip от Brazzass
  • Каникулы в Мексике. Пятница NEWS. Итоги Каникулы в Мексике Суперигра (2013) SATRip


    • Комментарии (0):

      Информация

      Информация

        Посетители, находящиеся в группе Гости, не могут оставлять комментарии в данной новости.

        ↓ Меню



        ↓ Опрос

        А Вы добавили сайт в закладки?
        Да
        Не


        Top 10 за месяц (Фильмы)