.
Авторизация | Регистрация
Хочешь лучшие торренты? Добавь свой email!
Добавить
» » Философы: Урок выживания / The Philosophers (2013) HDRip | Лицензия скачать через торрент бесплатно




    Философы: Урок выживания / The Philosophers (2013) HDRip | Лицензия скачать через торрент бесплатно

    Опубликовал: Админ | Дата: 27-02-2015, 11:09 | Просмотров: 334


    Детально о кино
    Русское название: Философы: Урок выживания
    Русское название в мировом прокате: The Philosophers
    Создали в: 2013
    Категория жанра: триллер, фантастика
    Главный режиссер: Джон Хаддлс / John Huddles
    Актеры: Софи Лоу, Джеймс Д’Арси, Риз Уэйкфилд, Дэрил Сабара, Бонни Райт, Кэти Финдлей, Фредди Строма, Хоуп Олэйд Уилсон, Абхи Синха, Джейкоб Артист

    Сюжет фильма: В международной школе в Джакарте таинственный учитель философии в качестве выпускного экзамена предлагает 20 студентам провести эксперимент. Этот опыт будет самым экстремальным, с которым они когда-либо сталкивались.
    Используя только силу логики, студенты должны выбрать, кто из них будет достоин получить место в подземном бункере — единственном месте, где можно спастись от приближающейся ядерной катастрофы. Бункер рассчитан на десять человек, а значит, тех, кого не выбирают, ожидает жестокая смерть. Реальность классной комнаты эффектно перетекает в воображаемый, но в то же время пугающий мир надвигающегося апокалипсиса…




    Снималось в: США / Индонезия
    Киностудия: An Olive Branch Productions, SCTV
    Время просмотра: 01:42:20
    Перевод текста: Профессиональный (дублированный) лицензия
    Субтитры: Нет

    Файл
    Формат: AVI (XviD)
    Качество: HDRip (Исх. Philosophers.2013.1080P.BluRay.x264.Wiki.PublicHD)
    Информация о видео: 688x288 (2.39:1), 23.976 fps, XviD build 73 ~884 kbps avg, 0.19 bit/pixel
    Звук: 48 kHz, MPEG Layer 3, 2 ch, ~128.00 kbps avg

    Размер скачиваемого торрента: 748.67 Mb
    Скачать: Семпл
    MI
    Общее
    Полное имя : Filosofy.Urok.vyjivaniya.2013.D.HDRip.Deadmauvlad.avi
    Формат : AVI
    Формат/Информация : Audio Video Interleave
    Размер файла : 749 Мбайт
    Продолжительность : 1 ч. 42 м.
    Общий поток : 1022 Кбит/сек
    Название фильма : Filosofy.Urok.vyjivaniya.2013.D.HDRip.Deadmauvlad
    Режиссёр : Deadmauvlad
    Жанр : драма
    Программа кодирования : VirtualDubMod 1.5.10.3 | www.virtualdub-fr.org || (build 2550/release)
    Формат оригинала/Имя : Фильм
    Правообладатель : Goldenshara

    Видео
    Идентификатор : 0
    Формат : MPEG-4 Visual
    Профиль формата : Advanced Simple@L5
    Параметр BVOP формата : 1
    Параметр QPel формата : Нет
    Параметр GMC формата : Без точки перехода
    Параметр матрицы формата : Default (MPEG)
    Идентификатор кодека : XVID
    Идентификатор кодека/Подсказка : XviD
    Продолжительность : 1 ч. 42 м.
    Битрейт : 885 Кбит/сек
    Ширина : 688 пикселей
    Высота : 288 пикселей
    Соотношение сторон : 2,40:1
    Частота кадров : 23,976 кадра/сек
    Цветовое пространство : YUV
    Субдискретизация насыщенности : 4:2:0
    Битовая глубина : 8 бит
    Тип развёртки : Прогрессивная
    Метод сжатия : С потерями
    Бит/(Пиксели*Кадры) : 0.186
    Размер потока : 648 Мбайт (87%)
    Библиотека кодирования : XviD 73

    Аудио
    Идентификатор : 1
    Формат : MPEG Audio
    Версия формата : Version 1
    Профиль формата : Layer 3
    Идентификатор кодека : 55
    Идентификатор кодека/Подсказка : MP3
    Продолжительность : 1 ч. 42 м.
    Вид битрейта : Постоянный
    Битрейт : 128 Кбит/сек
    Каналы : 2 канала
    Частота : 48,0 КГц
    Метод сжатия : С потерями
    Размер потока : 93,8 Мбайт (13%)
    Выравнивание : Соединение по промежуткам
    Продолжительность промежутка : 42 мс. (1,00 видеокадр)
    Время предзагрузки промежутка : 504 мс.
    Библиотека кодирования : LAME3.99r
    Залил: DJ_V.K_TV
    Размер скачиваемого торрента: 748.67 MB (785037312 Bytes)


    Философы: Урок выживания / The Philosophers (2013) HDRip | Лицензия скачать через торрент бесплатно
    загрузка...
    Рейтинг →
     (голосов: 1, оценка 5/5, голосовать можно 1 раз )

    Другие торренты по теме:

  • Философы: Урок выживания / The Philosophers (2013) HDTVRip | Чистый звук скачать через торрент бесплатно
  • Философы: Урок выживания / The Philosophers (2013) DVDRip | Лицензия
  • Философы: Урок выживания / The Philosophers (2013) DVDRip-AVC | Лицензия
  • Философы: Урок выживания / The Philosophers (2013) HDRip от New-Team | D | Лицензия скачать через торрент бесплатно
  • OST - Философы: Урок выживания / The Philosophers (2014) MP3
  • Философы: Урок выживания / The Philosophers (2013) BDRip 720p | Лицензия скачать через торрент бесплатно
  • Философы: Урок выживания / The Philosophers (2013) HDRip-AVC | D | Лицензия скачать через торрент бесплатно
  • Философы: Урок выживания / The Philosophers (2013) BDRip 720p


    • Комментарии (0):

      Информация

      Информация

        Посетители, находящиеся в группе Гости, не могут оставлять комментарии в данной новости.

        ↓ Меню



        ↓ Опрос

        А Вы добавили сайт в закладки?
        Да
        Не


        Top 10 за месяц (Фильмы)