.
Авторизация | Регистрация
Хочешь лучшие торренты? Добавь свой email!
Добавить
» » Криминальное чтиво / Pulp Fiction (1994) BDRip от Leon-masl скачать через торрент бесплатно




    Криминальное чтиво / Pulp Fiction (1994) BDRip от Leon-masl скачать через торрент бесплатно

    Опубликовал: Админ | Дата: 27-02-2015, 11:09 | Просмотров: 340



    Детально о кино
    Русское название: Криминальное чтиво
    Русское название в мировом прокате: Pulp Fiction
    Создали в: 1994
    Категория жанра: триллер, комедия, криминал
    Главный режиссер: Квентин Тарантино
    Актеры: Джон Траволта, Сэмюэл Л. Джексон, Брюс Уиллис, Ума Турман, Винг Реймз, Тим Рот, Харви Кейтель, Квентин Тарантино, Питер Грин, Аманда Пламмер

    Сюжет фильма:
    Двое бандитов Винсент Вега и Джулс Винфилд проводят время в философских беседах в перерыве между разборками и решением проблем с должниками своего криминального босса Марселласа Уоллеса. Параллельно разворачивается три истории.

    В первой из них Винсент присматривает за женой Марселласа Мией и спасает ее от передозировки наркотиков. Во второй рассказывается о Бутче Кулидже, боксере, нанятом Уоллесом, чтобы сдать бой, но обманувшим его. Третья история объединяет первые две — в кафе парочка молодых неудачливых грабителей — Пампкин и Хани Бани делают попытку ограбления, но Джулс останавливает их.




    Снималось в: США
    Киностудия: A Band Apart, Jersey Films, Miramax Films
    Время просмотра: 02:32:43
    Перевод текста: Авторский (одноголосый, закадровый) В.Горчаков

    Файл
    Кодек для видео: XviD
    Качество фильма: BDRip с |Blu-ray 1080p MPEG-2 DTS-HD 5.1 HDCLUB.org|
    Информация о видео: 720 x 304, 23.976 fps, ~ 1168 kbps
    Информация о звуке: 48 kHz, AC3 Dolby Digital, 2.0 ch, ~192.00 kbps
    MI
    Общее
    Полное имя : Pulp.Fiction .1994.BDRip..avi
    Формат : AVI
    Формат/Информация : Audio Video Interleave
    Размер файла : 1,46 Гбайт
    Продолжительность : 2 ч. 32 м.
    Общий поток : 1369 Кбит/сек
    Программа кодирования : VirtualDubMod 1.5.10.3 | www.virtualdub-fr.org || (build 2550/release)
    Библиотека кодирования : VirtualDubMod build 2550/release

    Видео
    Идентификатор : 0
    Формат : MPEG-4 Visual
    Профиль формата : Advanced Simple@L5
    Параметр BVOP формата : 1
    Параметр QPel формата : Нет
    Параметр GMC формата : Без точки перехода
    Параметр матрицы формата : Выборочная
    Идентификатор кодека : XVID
    Идентификатор кодека/Подсказка : XviD
    Продолжительность : 2 ч. 32 м.
    Битрейт : 1168 Кбит/сек
    Ширина : 720 пикс.
    Высота : 304 пикс.
    Соотношение сторон : 2,35:1
    Частота кадров : 23,976 кадр/сек
    Цветовое пространство : YUV
    Подвыборка цветности : 4:2:0
    Битовая глубина : 8 бит
    Тип развёртки : Прогрессивная
    Метод сжатия : С потерями
    Бит/(Пиксели*Кадры) : 0.223
    Размер потока : 1,25 Гбайт (85%)
    Библиотека кодирования : XviD 73

    Аудио
    Идентификатор : 1
    Формат : AC-3
    Формат/Информация : Audio Coding 3
    Расширение режима : CM (complete main)
    Идентификатор кодека : 2000
    Продолжительность : 2 ч. 32 м.
    Вид битрейта : Постоянный
    Битрейт : 192 Кбит/сек
    Канал(ы) : 2 канала(ов)
    Расположение каналов : Front: L R
    Частота : 48,0 КГц
    Битовая глубина : 16 бит
    Метод сжатия : С потерями
    Размер потока : 210 Мбайт (14%)
    Выравнивание : Разделение по промежуткам
    Продолжительность промежутка : 42 мс. (1,00 видеокадр)
    Время предзагрузки промежутка : 500 ms
    Скриншоты для ознакомления


    Релиз подготовил: Leon-masl
    Залил: leon-masl
    Размер скачиваемого торрента: 1.46 GB (1568368640 Bytes)

    Криминальное чтиво / Pulp Fiction (1994) BDRip от Leon-masl скачать через торрент бесплатно
    загрузка...
    Рейтинг →
     (голосов: 1, оценка 5/5, голосовать можно 1 раз )

    Другие торренты по теме:

  • Криминальное чтиво / Pulp Fiction (1994) DVDRip | D | Extended Cut
  • Криминальное чтиво / Pulp Fiction (1994) BDRip 720p от leonardo 59 Scarabey скачать через торрент бесплатно
  • Криминальное чтиво / Pulp Fiction (1994) BDRip-AVC от ExKinoRay | D, P, A скачать через торрент бесплатно
  • Криминальное чтиво / Pulp Fiction (1994) BDRip от MediaClub | КПК
  • Криминальное чтиво / Pulp Fiction / 1994 / АП (Горчаков) / HDRip
  • Криминальное чтиво / Pulp Fiction (1994) BDRip-AVC от Plusnindimon | D


    • Комментарии (0):

      Информация

      Информация

        Посетители, находящиеся в группе Гости, не могут оставлять комментарии в данной новости.

        ↓ Меню



        ↓ Опрос

        А Вы добавили сайт в закладки?
        Да
        Не


        Top 10 за месяц (Фильмы)