.
Авторизация | Регистрация
Хочешь лучшие торренты? Добавь свой email!
Добавить
» » Андроид / App / Android (2013) HDRip | Лицензия скачать через торрент бесплатно




    Андроид / App / Android (2013) HDRip | Лицензия скачать через торрент бесплатно

    Опубликовал: Админ | Дата: 27-02-2015, 11:09 | Просмотров: 344



    Детально о кино
    Русское название: Андроид
    Русское название в мировом прокате: App / Android
    Создали в: 2013
    Категория жанра: триллер
    Главный режиссер: Бобо Боерманс / Bobby Boermans
    Актеры: Ханна Хекстра, Роберт де Хуг, Исис Каболе, Маттис ван де Санде Бакхуйзен, Марк ван Эувен, Лиза Сипс, Ерун Шпиценбергер, Алекс Хендрикс, Патрик Мартенс, Гиги Равелли

    Сюжет фильма:
    Симпатичная студентка Анна просыпается после вечеринки и обнаруживает на своем смартфоне загадочное приложение Айрис… Активируя приложение, Анна запускает головокружительную и трагическую череду событий в жизни своих друзей и знакомых. Кто за этим стоит? …




    Снималось в: Нидерланды
    Время просмотра: 01:18:43
    Перевод текста: Дублированный Лицензия

    Файл
    Кодек для видео: XviD
    Качество фильма: HDRip (Исх. BDRip 720p)
    Информация о видео: 720x304 (2.37:1), 24.000 fps, XviD build 50 ~2184 kbps avg, 0.42 bit/pixel
    Информация о звуке: 48 kHz, AC3 Dolby Digital, 3/2 (L,C,R,l,r) LFE ch, ~448.00 kbps avg
    Субтитры: нет

    Семпл

    MediaInfo

    Общее
    Полное имя : K:Андроид. 2013. HDRip.avi
    Формат : AVI
    Формат/Информация : Audio Video Interleave
    Размер файла : 1,45 Гбайт
    Продолжительность : 1 ч. 18 м.
    Общий поток : 2642 Кбит/сек
    Программа кодирования : VirtualDubMod 1.5.10.3 | www.virtualdub-fr.org || (build 2550/release)
    Библиотека кодирования : VirtualDubMod build 2550/release

    Видео
    Идентификатор : 0
    Формат : MPEG-4 Visual
    Профиль формата : Advanced Simple@L5
    Параметр BVOP формата : 2
    Параметр QPel формата : Нет
    Параметр GMC формата : Без точки перехода
    Параметр матрицы формата : Выборочная
    Идентификатор кодека : XVID
    Идентификатор кодека/Подсказка : XviD
    Продолжительность : 1 ч. 18 м.
    Битрейт : 2184 Кбит/сек
    Ширина : 720 пикс.
    Высота : 304 пикс.
    Соотношение сторон : 2,35:1
    Частота кадров : 24,000 кадр/сек
    Цветовое пространство : YUV
    Подвыборка цветности : 4:2:0
    Битовая глубина : 8 бит
    Тип развёртки : Прогрессивная
    Метод сжатия : С потерями
    Бит/(Пиксели*Кадры) : 0.416
    Размер потока : 1,20 Гбайт (83%)
    Библиотека кодирования : XviD 1.2.1 (UTC 2008-12-04)

    Аудио
    Идентификатор : 1
    Формат : AC-3
    Формат/Информация : Audio Coding 3
    Расширение режима : CM (complete main)
    Идентификатор кодека : 2000
    Продолжительность : 1 ч. 18 м.
    Вид битрейта : Постоянный
    Битрейт : 448 Кбит/сек
    Каналы : 6 каналов
    Расположение каналов : Front: L C R, Side: L R, LFE
    Частота : 48,0 КГц
    Битовая глубина : 16 бит
    Метод сжатия : С потерями
    Размер потока : 252 Мбайт (17%)
    Выравнивание : Разделение по промежуткам
    Продолжительность промежутка : 42 мс. (1,00 видеокадр)
    Время предзагрузки промежутка : 500 ms

    Скриншоты для ознакомления

    Залил: Losk
    Размер скачиваемого торрента: 1.45 GB (1559498752 Bytes)

    Андроид / App / Android (2013) HDRip | Лицензия скачать через торрент бесплатно
    загрузка...
    Рейтинг →
     (голосов: 1, оценка 4/5, голосовать можно 1 раз )

    Другие торренты по теме:

  • Иван Кот - Синхронизация ОС Андроид с ОС Windows (2013) DJVU
  • Андроид / Android / App (2013) DVDRip | Лицензия
  • Андроид / Android / App (2013) DVDRip-AVC | Лицензия скачать через торрент бесплатно
  • Андроид / Android / App (2013) BDRip 720p | Лицензия скачать через торрент бесплатно
  • Андроид / Android / App (2013) BDRip 720p от LEONARDO and Scarabey | Лицензия скачать через торрент бесплатно
  • Андроид / Android / App (2013) BDRip 1080p | Лицензия скачать через торрент бесплатно
  • Андроид / App / Android (2013) DVDRip от -=HD-NET=- | КПК | Лицензия скачать через торрент бесплатно
  • Андроид / Android / App (2013) BDRip-AVC от Rulya74 скачать через торрент бесплатно


    • Комментарии (0):

      Информация

      Информация

        Посетители, находящиеся в группе Гости, не могут оставлять комментарии в данной новости.

        ↓ Меню



        ↓ Опрос

        А Вы добавили сайт в закладки?
        Да
        Не


        Top 10 за месяц (Фильмы)