.
Авторизация | Регистрация
Хочешь лучшие торренты? Добавь свой email!
Добавить
» » Бесстрашный / Fearless (1993) BDRip by msltel | P, A скачать торрент бесплатно




    Бесстрашный / Fearless (1993) BDRip by msltel | P, A скачать торрент бесплатно

    Опубликовал: Админ | Дата: 27-02-2015, 11:09 | Просмотров: 277



    Русское название: Бесстрашный
    Русское название в мировом прокате: Fearless
    Создали в: 1993
    Категория жанра: Драма
    Снималось в: США, Spring Creek Productions, Warner Bros. Pictures
    Главный режиссер: Питер Уир
    Актеры: Джефф Бриджес, Рози Перес, Изабелла Росселлини, Том Халс, Джон Туртурро, Бенисио Дель Торо, Дирдри О’Коннелл, Джон де Ланси, Спенсер Врумэн, Дэниел Черни

    Сюжет фильма: Макс Клейн выжил в ужасной авиакатастрофе, но это потрясение изменило всю его жизнь. Он больше не испытывает страха смерти и считает себя неуязвимым, отстранясь при этом от семьи и друзей. Но, следуя совету психиатра, Макс начинает общаться с убитой горем Карлой, которая также выжила в катастрофе, но потеряла в ней маленького сына. Быть может, если Максу удастся помочь Карле, он поможет и себе самому…

    Качество фильма: BDRip
    Размер скачиваемого торрента: 2.07 ГБ
    Время просмотра: 02:02:03

    Информация о видео: XviD, 1901 Кбит/с, 720x400
    Информация о звуке 1: русский, 48 kHz, AC3, 2 ch, 192 kbps avg, Профессиональный многоголосый, ТК Россия
    Информация о звуке 2: русский, 48 kHz, AC3, 2 ch, 128 kbps avg, Авторский, Андрей Дольский

    Внешние файлы
    Информация о звуке: английский, 48 kHz, AC3, 2 ch, 192 kbps avg, Оригинал
    Субтитры: русские
    Субтитры: английские (для слабослышащих)

    Исходник: delo2006 (HDTracker)

    Сравнение с исходником



    Награды
    Оскар, 1994 год
    Номинации (1):
    Лучшая женская роль второго плана (Рози Перес)

    Золотой глобус, 1994 год
    Номинации (1):
    Лучшая женская роль второго плана (Рози Перес)

    Берлинский кинофестиваль, 1994 год
    Победитель (1):
    Особое упоминание

    Номинации (1):
    Золотой Медведь
    MediaInfo
    Общее
    Полное имя : E:VideoBesstrashnyj.1993.XviD.BDRipBesstrashnyj.1993.eng.SDH.srt
    Размер файла : 206 Кбайт

    Общее
    Полное имя : E:VideoBesstrashnyj.1993.XviD.BDRipBesstrashnyj.1993.Original.eng.ac3
    Формат : AC-3
    Формат/Информация : Audio Coding 3
    Размер файла : 168 Мбайт
    Продолжительность : 2 ч. 2 м.
    Режим общего битрейта : Постоянный
    Общий поток : 192 Кбит/сек

    Аудио
    Формат : AC-3
    Формат/Информация : Audio Coding 3
    Расширение режима : CM (complete main)
    Параметр Endianness формата : Big
    Продолжительность : 2 ч. 2 м.
    Вид битрейта : Постоянный
    Битрейт : 192 Кбит/сек
    Каналы : 2 канала
    Расположение каналов : Front: L R
    Частота : 48,0 КГц
    Битовая глубина : 16 бит
    Метод сжатия : С потерями
    Размер потока : 168 Мбайт (100%)

    Общее
    Полное имя : E:VideoBesstrashnyj.1993.XviD.BDRipBesstrashnyj.1993.rus.srt
    Размер файла : 167 Кбайт

    Общее
    Полное имя : E:VideoBesstrashnyj.1993.XviD.BDRipBesstrashnyj.1993.XviD.BDRip.avi
    Формат : AVI
    Формат/Информация : Audio Video Interleave
    Размер файла : 1,91 Гбайт
    Продолжительность : 2 ч. 2 м.
    Общий поток : 2235 Кбит/сек
    Программа кодирования : VirtualDubMod 1.5.10.2 (build 2540/release)
    Библиотека кодирования : VirtualDubMod build 2540/release

    Видео
    Идентификатор : 0
    Формат : MPEG-4 Visual
    Профиль формата : Advanced Simple@L5
    Параметр BVOP формата : 1
    Параметр QPel формата : Нет
    Параметр GMC формата : Без точки перехода
    Параметр матрицы формата : Default (H.263)
    Режим смешивания : Сжатый битовый поток
    Идентификатор кодека : XVID
    Идентификатор кодека/Подсказка : XviD
    Продолжительность : 2 ч. 2 м.
    Битрейт : 1901 Кбит/сек
    Ширина : 720 пикселей
    Высота : 400 пикселей
    Соотношение сторон : 16:9
    Частота кадров : 23,976 кадра/сек
    Цветовое пространство : YUV
    Субдискретизация насыщенности : 4:2:0
    Битовая глубина : 8 бит
    Тип развёртки : Прогрессивная
    Метод сжатия : С потерями
    Бит/(Пиксели*Кадры) : 0.275
    Размер потока : 1,62 Гбайт (85%)
    Библиотека кодирования : XviD 1.2.1 (UTC 2008-12-04)

    Аудио #1
    Идентификатор : 1
    Формат : AC-3
    Формат/Информация : Audio Coding 3
    Расширение режима : CM (complete main)
    Параметр Endianness формата : Big
    Идентификатор кодека : 2000
    Продолжительность : 2 ч. 2 м.
    Вид битрейта : Постоянный
    Битрейт : 192 Кбит/сек
    Каналы : 2 канала
    Расположение каналов : Front: L R
    Частота : 48,0 КГц
    Битовая глубина : 16 бит
    Метод сжатия : С потерями
    Размер потока : 168 Мбайт (9%)
    Выравнивание : Разделение по промежуткам
    Продолжительность промежутка : 42 мс. (1,00 видеокадр)
    Время предзагрузки промежутка : 500 мс.

    Аудио #2
    Идентификатор : 2
    Формат : AC-3
    Формат/Информация : Audio Coding 3
    Расширение режима : CM (complete main)
    Параметр Endianness формата : Big
    Идентификатор кодека : 2000
    Продолжительность : 2 ч. 2 м.
    Вид битрейта : Постоянный
    Битрейт : 128 Кбит/сек
    Каналы : 2 канала
    Расположение каналов : Front: L R
    Частота : 48,0 КГц
    Битовая глубина : 16 бит
    Метод сжатия : С потерями
    Размер потока : 112 Мбайт (6%)
    Выравнивание : Разделение по промежуткам
    Продолжительность промежутка : 42 мс. (1,00 видеокадр)
    Время предзагрузки промежутка : 500 мс.
    Скриншоты для ознакомления



    Залил: msltel
    Размер скачиваемого торрента: 2.07 GB (2222274220 Bytes)

    Бесстрашный / Fearless (1993) BDRip by msltel | P, A торрент скачать бесплатно
    загрузка...
    Рейтинг →
     (голосов: 1, оценка 3/5, голосовать можно 1 раз )

    Другие торренты по теме:

  • Бесстрашный / Dabangg (2010) BDRip-AVC от Тorrent-Хzona
  • Бесстрашный 2 / Dabangg 2 (2012) BDRip | L
  • Бесстрашный / Fearless (2006) HDRip-AVC от WazZzup | D
  • Бесстрашный / Fearless (1993) BDRip 720p от MediaClub | P, A скачать через торрент бесплатно
  • Бесстрашный / Fearless (1993) BDRip 1080p by msltel | P, A
  • Бесстрашный / Fearless / Huo Yuan Jia (2006) BDRip-AVC от MediaClub | A | Directors Cut


    • Комментарии (0):

      Информация

      Информация

        Посетители, находящиеся в группе Гости, не могут оставлять комментарии в данной новости.

        ↓ Меню



        ↓ Опрос

        А Вы добавили сайт в закладки?
        Да
        Не


        Top 10 за месяц (Фильмы)