.
Авторизация | Регистрация
Хочешь лучшие торренты? Добавь свой email!
Добавить
» » Человек без лица / The Man without a Face (1993) BDRemux | P, A скачать через торрент бесплатно




    Человек без лица / The Man without a Face (1993) BDRemux | P, A скачать через торрент бесплатно

    Опубликовал: Админ | Дата: 27-02-2015, 11:09 | Просмотров: 306

    Человек без лица / The Man without a Face



    Создали в: 1993
    Снималось в: США, Icon Entertainmnet International
    Категория жанра: Драма
    Время просмотра: 01:54:43
    Перевод текста №1: Профессиональный (Многоголосый закадровый) (R5)
    Перевод текста №2: Авторский (Одноголосый закадровый)
    Язык субтитров: Русский, итальянский
    Тип субтитров: Вшитые, отключаемые

    Главный режиссер: Мэл Гибсон / Mel Gibson


    Актеры:Мэл Гибсон, Ник Стал, Маргарет Уиттон, Фэй Мастерсон, Гэби Хоффманн, Джеффри Льюис, Ричард Мейсер, Майкл ДеЛуис, Итэн Филлипс, Джин Де Баэр


    Сюжет: Ненавистная жизнь с матерью и двумя сестрами от разных отцов сделала 12-летнего Чака циником и нахалом. Но однажды он знакомится с Дастином Маклаудом — таинственным отшельником с обезображенным лицом, о котором ходят самые невероятные слухи. И оказалось, что не все еще потеряно для обоих.



    Качество фильма: BDRemux
    Тип видео: MKV
    Информация о видео кодек: H.264
    Информация о видео: 20,2 Мбит/сек, 1920x1080 (16:9), 24,000 кадра/сек
    Информация о звуке №1: AC3, 6 каналов, 384 Кбит/сек, CBR, 48,0 КГц (Английский, оригинал)
    Информация о звуке №2: AC3, 6 каналов, 384 Кбит/сек, CBR, 48,0 КГц (Русский, MVO)
    Информация о звуке №3: AC3, 2 канала, 224 Кбит/сек, CBR, 48,0 КГц (Английский, комментарии)
    Информация о звуке №4: AC3, 2 канала, 192 Кбит/сек, CBR, 48,0 КГц (Русский, AVO)
    BDInfo
    DISC INFO:

    Disc Title: THE_MAN_WITHOUT_A_FACE_1993_BD-REMUX_HDCLUB
    Disc Size: 19 216 858 364 bytes
    Protection: AACS
    BD-Java: No
    BDInfo: 0.5.2

    PLAYLIST REPORT:

    Name: 00000.MPLS
    Size: 19 216 766 976 bytes
    Length: 1:54:42 (h:m:s)
    Total Bitrate: 22,34 Mbps
    Deion:

    VIDEO:

    Codec Bitrate Deion
    ----- ------- -----------
    MPEG-4 AVC Video 19992 kbps 1080p / 24 fps / 16:9 / High Profile 4.1

    AUDIO:

    Codec Language Bitrate Deion
    ----- -------- ------- -----------
    Dolby Digital Audio English 384 kbps 5.1 / 48 kHz / 384 kbps
    Dolby Digital Audio Russian 384 kbps 5.1 / 48 kHz / 384 kbps
    Dolby Digital Audio English 224 kbps 2.0 / 48 kHz / 224 kbps
    Dolby Digital Audio Russian 192 kbps 2.0 / 48 kHz / 192 kbps

    SUBTITLES:

    Codec Language Bitrate Deion
    ----- -------- ------- -----------
    Presentation Graphics Italian 42,866 kbps
    Presentation Graphics Russian 25,848 kbps

    MediaInfo 0.7.64
    Общее
    Идентификатор : 1 (0x1)
    Полное имя : C:UsersivanDesktopTHE_MAN_WITHOUT_A_FACE_1993_BD-REMUX_HDCLUBBDMVSTREAM0000.m2ts
    Формат : BDAV
    Формат/Информация : Blu-ray Video
    Размер файла : 17,9 Гбайт
    Продолжительность : 1 ч. 54 м.
    Режим общего битрейта : Переменный
    Общий поток : 22,3 Мбит/сек
    Максимальный общий битрейт : 35,5 Мбит/сек

    Видео
    Идентификатор : 4113 (0x1011)
    Идентификатор меню : 1 (0x1)
    Формат : AVC
    Формат/Информация : Advanced Video Codec
    Профиль формата : High@L4.1
    Параметр CABAC формата : Да
    Параметр ReFrames формата : 4 кадра
    Идентификатор кодека : 27
    Продолжительность : 1 ч. 54 м.
    Вид битрейта : Переменный
    Битрейт : 20,2 Мбит/сек
    Максимальный битрейт : 38,0 Мбит/сек
    Ширина : 1920 пикселей
    Высота : 1080 пикселей
    Соотношение сторон : 16:9
    Частота кадров : 24,000 кадра/сек
    Цветовое пространство : YUV
    Субдискретизация насыщенности : 4:2:0
    Битовая глубина : 8 бит
    Тип развёртки : Прогрессивная
    Бит/(Пиксели*Кадры) : 0.407
    Размер потока : 16,2 Гбайт (91%)
    Основные цвета : BT.709
    Характеристики трансфера : BT.709
    Коэффициенты матрицы : BT.709

    Аудио #1
    Идентификатор : 4352 (0x1100)
    Идентификатор меню : 1 (0x1)
    Формат : AC-3
    Формат/Информация : Audio Coding 3
    Расширение режима : CM (complete main)
    Параметр Endianness формата : Big
    Идентификатор кодека : 129
    Продолжительность : 1 ч. 54 м.
    Вид битрейта : Постоянный
    Битрейт : 384 Кбит/сек
    Каналы : 6 каналов
    Расположение каналов : Front: L C R, Side: L R, LFE
    Частота : 48,0 КГц
    Битовая глубина : 16 бит
    Метод сжатия : С потерями
    Размер потока : 315 Мбайт (2%)
    Язык : Russian

    Аудио #2
    Идентификатор : 4353 (0x1101)
    Идентификатор меню : 1 (0x1)
    Формат : AC-3
    Формат/Информация : Audio Coding 3
    Расширение режима : CM (complete main)
    Параметр Endianness формата : Big
    Идентификатор кодека : 129
    Продолжительность : 1 ч. 54 м.
    Вид битрейта : Постоянный
    Битрейт : 192 Кбит/сек
    Каналы : 2 канала
    Расположение каналов : Front: L R
    Частота : 48,0 КГц
    Битовая глубина : 16 бит
    Метод сжатия : С потерями
    Размер потока : 158 Мбайт (1%)
    Язык : Russian

    Аудио #3
    Идентификатор : 4354 (0x1102)
    Идентификатор меню : 1 (0x1)
    Формат : AC-3
    Формат/Информация : Audio Coding 3
    Расширение режима : CM (complete main)
    Параметр Endianness формата : Big
    Идентификатор кодека : 129
    Продолжительность : 1 ч. 54 м.
    Вид битрейта : Постоянный
    Битрейт : 384 Кбит/сек
    Каналы : 6 каналов
    Расположение каналов : Front: L C R, Side: L R, LFE
    Частота : 48,0 КГц
    Битовая глубина : 16 бит
    Метод сжатия : С потерями
    Размер потока : 315 Мбайт (2%)
    Язык : English

    Аудио #4
    Идентификатор : 4355 (0x1103)
    Идентификатор меню : 1 (0x1)
    Формат : AC-3
    Формат/Информация : Audio Coding 3
    Расширение режима : CM (complete main)
    Параметр Endianness формата : Big
    Идентификатор кодека : 129
    Продолжительность : 1 ч. 54 м.
    Вид битрейта : Постоянный
    Битрейт : 224 Кбит/сек
    Каналы : 2 канала
    Расположение каналов : Front: L R
    Частота : 48,0 КГц
    Битовая глубина : 16 бит
    Метод сжатия : С потерями
    Размер потока : 184 Мбайт (1%)
    Язык : English

    Текст #1
    Идентификатор : 4608 (0x1200)
    Идентификатор меню : 1 (0x1)
    Формат : PGS
    Идентификатор кодека : 144
    Язык : Russian

    Текст #2
    Идентификатор : 4609 (0x1201)
    Идентификатор меню : 1 (0x1)
    Формат : PGS
    Идентификатор кодека : 144
    Язык : Italian

    Скриншоты для ознакомления



    Залил: nbdjod
    Размер скачиваемого торрента: 17.90 GB (19216858364 Bytes)

    Человек без лица / The Man without a Face (1993) BDRemux | P, A скачать через торрент бесплатно
    загрузка...
    Рейтинг →
     (голосов: 1, оценка 5/5, голосовать можно 1 раз )

    Другие торренты по теме:

  • Человек без прошлого / Mies vailla menneisyytta / The Man Without a Past (2002) DVDRip от Scarabey | Р
  • Человек без прошлого / Mies vailla menneisyytta (2002) BDRip от Rulya74
  • Человек без прошлого / Mies vailla menneisyytta (2002) BDRip-AVC от HELLYWOOD | P2 | Лицензия
  • Человек без прошлого / Mies vailla menneisyytt / The Man Without a Past (2002) HDRip от Scarabey | Р скачать через торрент бесплатно
  • Человек без памяти / Пазл / LUomo senza memoria / Puzzle (1974) DVDRip - от NovaLan скачать через торрент бесплатно
  • Человек без лица / The Man without a Face (1993) BDRip-AVC | P, A
  • Человек без лица / The Man without a Face (1993) BDRip-AVC | P скачать через торрент бесплатно
  • Человек без покровов (Изгой) / Man Exposed / Riisuttu mies (2006) DVDRip скачать через торрент бесплатно


    • Комментарии (0):

      Информация

      Информация

        Посетители, находящиеся в группе Гости, не могут оставлять комментарии в данной новости.

        ↓ Меню



        ↓ Опрос

        А Вы добавили сайт в закладки?
        Да
        Не


        Top 10 за месяц (Фильмы)