.
Авторизация | Регистрация
Хочешь лучшие торренты? Добавь свой email!
Добавить
» » Паранормальное явление 4 / Paranormal Activity 4 (2012) HDRip от Deadmauvlad | D | Unrated Directors Cut | USA Transfer скачать торрент бесплатно




    Паранормальное явление 4 / Paranormal Activity 4 (2012) HDRip от Deadmauvlad | D | Unrated Directors Cut | USA Transfer скачать торрент бесплатно

    Опубликовал: Админ | Дата: 27-02-2015, 11:09 | Просмотров: 304


    Паранормальное явление 4 / Paranormal Activity 4 Unrated Director;s Cut





    Создали в: 2012
    Снималось в: США
    Категория жанра: Ужасы
    Время просмотра: 01:36:41
    Перевод текста: Дубляж (на расширенные места субтитры)
    Субтитры: Русские (Перевел Влад Кардаш Правка JekSoN Vika_35), Английские


    Главный режиссер: Генри Джуст / Henry Joost, Эриель Шульман / Ariel Schulman


    Актеры: Кэтрин Ньютон (Alex), Кэти Физерстон (Katie), Мэтт Шивли (Ben), Алексондра Ли (Holly), Стивен Данэм (Doug), Сара Морнелл (Debbie), Брэйди Аллен (Robbie), Эйден Лавкамп (Wyatt), Брэндон Хэйл Эггерсен (Derrick), Алиша Боэ (Alex;s Friend), Уильям Хуан Прието (Hunter)...


    Сюжет: Действие разворачивается спустя 5 лет с момента событий фильма Паранормальное явление 2. Алекс и её бойфренд борются с паранормальной активностью в их доме.





    Качество фильма: HDRip 100% Совместимость с бытовыми DVD Плеерами
    Тип видео: AVI
    Информация о видео кодек: XviD
    Информация о звуке кодек: MP3
    Информация о видео: 640x352 (1.82:1), 23.976 fps, XviD MPEG-4 ~874 kbps avg, 0.16 bit/pixel
    Информация о звуке : 44.100 kHz, MPEG Layer 3, 2 ch, ~192.00 kbps avg Дубляж


    Доп. информация
    Данная версия длиннее обычной на 15 мин
    Перевод не полный на расширенные места предлагаю читать субтитры.

    Работа над релизом
    1) Спасибо нашему Перевод текстачику за перевод
    2) Правка субтитров JekSoN Vika_35 им тоже спасибо !
    3) Спасибо PublicHD за исходник
    4) ну и себе любимому за рип и идею создания релиза !
    5) Тайминг Deadmauvlad Влад Кардаш

    MI
    Общее
    Полное имя : D:Рипы выкладка DeadmauvladParanormal.Activity.4.2012.HDRip.Deadmauvlad.D.Unrated Director;s Cut.Dub SubRus.EngParanormal.Activity.4.2012.HDRip.Deadmauvlad.D.Unrated Director;s Cut.avi
    Формат : AVI
    Формат/Информация : Audio Video Interleave
    Размер файла : 744 Мбайт
    Продолжительность : 1 ч. 36 м.
    Общий поток : 1076 Кбит/сек
    Название фильма : Paranormal.Activity.4.2012.HDRip.Deadmauvlad.D.Unrated Director;s Cut
    Режиссёр : Deadmauvlad
    Жанр : Ужасы
    Программа кодирования : VirtualDubMod 1.5.10.3 | www.virtualdub-fr.org || (build 2550/release)
    Формат оригинала/Имя : Фильм
    Правообладатель : Goldenshara

    Видео
    Идентификатор : 0
    Формат : MPEG-4 Visual
    Профиль формата : Advanced Simple@L5
    Параметр BVOP формата : 4
    Параметр QPel формата : Нет
    Параметр GMC формата : Без точки перехода
    Параметр матрицы формата : Default (H.263)
    Режим смешивания : Сжатый битовый поток
    Идентификатор кодека : XVID
    Идентификатор кодека/Подсказка : XviD
    Продолжительность : 1 ч. 36 м.
    Битрейт : 874 Кбит/сек
    Ширина : 640 пикселей
    Высота : 352 пикселя
    Соотношение сторон : 16:9
    Частота кадров : 23,976 кадра/сек
    Цветовое пространство : YUV
    Субдискретизация насыщенности : 4:2:0
    Битовая глубина : 8 бит
    Тип развёртки : Прогрессивная
    Метод сжатия : С потерями
    Бит/(Пиксели*Кадры) : 0.162
    Размер потока : 604 Мбайт (81%)
    Библиотека кодирования : XviD 64

    Аудио
    Идентификатор : 1
    Формат : MPEG Audio
    Версия формата : Version 1
    Профиль формата : Layer 3
    Идентификатор кодека : 55
    Идентификатор кодека/Подсказка : MP3
    Продолжительность : 1 ч. 36 м.
    Вид битрейта : Постоянный
    Битрейт : 192 Кбит/сек
    Каналы : 2 канала
    Частота : 44,1 КГц
    Метод сжатия : С потерями
    Размер потока : 133 Мбайт (18%)
    Выравнивание : Разделение по промежуткам
    Продолжительность промежутка : 42 мс. (1,00 видеокадр)
    Время предзагрузки промежутка : 500 мс.
    Библиотека кодирования : LAME3.99r
    Залил: DJ_V.K_TV
    Размер скачиваемого торрента: 744.03 MB (780176646 Bytes)


    Паранормальное явление 4 / Paranormal Activity 4 (2012) HDRip от Deadmauvlad | D | Unrated Directors Cut | USA Transfer торрент скачать бесплатно
    загрузка...
    Рейтинг →
     (голосов: 1, оценка 5/5, голосовать можно 1 раз )

    Другие торренты по теме:

  • Паранормальное явление 4 / Paranormal Activity 4 (2012) HDRip | UNRATED | Звук с CAMRip
  • Паранормальное явление 4 / Paranormal Activity 4 (2012) HDRip от Deadmauvlad | D | Unrated Directors Cut скачать через торрент бесплатно
  • Паранормальное явление: Метка Дьявола (2014) скачать через торрент бесплатно
  • Паранормальное явление: Метка Дьявола / Paranormal Activity: The Marked Ones (2014) CAMRip скачать через торрент бесплатно
  • Паранормальное явление: Метка Дьявола / Paranormal Activity: The Marked Ones (2013) BDRip 720p | Чистый звук
  • Паранормальное явление: Метка Дьявола / Paranormal Activity: The Marked Ones (2013) HDRip | Чистый звук
  • Паранормальное явление: Метка Дьявола / Paranormal Activity: The Marked Ones (2013) HDRip | Звук c CAMRip
  • Паранормальное явление: Метка Дьявола / Paranormal Activity: The Marked Ones (2013) HDRip от Deadmauvlad | Чистый звук скачать через торрент бесплатно


    • Комментарии (0):

      Информация

      Информация

        Посетители, находящиеся в группе Гости, не могут оставлять комментарии в данной новости.

        ↓ Меню



        ↓ Опрос

        А Вы добавили сайт в закладки?
        Да
        Не


        Top 10 за месяц (Фильмы)