.
Авторизация | Регистрация
Хочешь лучшие торренты? Добавь свой email!
Добавить
» » Извне / From Beyond (1986) BDRip-AVC | Режиссёрская версия / Directors Cut скачать торрент бесплатно




    Извне / From Beyond (1986) BDRip-AVC | Режиссёрская версия / Directors Cut скачать торрент бесплатно

    Опубликовал: Админ | Дата: 27-02-2015, 11:09 | Просмотров: 311



    Русское название: Извне
    Русское название в мировом прокате: From Beyond
    Снималось в: США
    Категория жанра: Ужасы, Фантастика
    Создали в: 1986
    Время просмотра: 01:25:36
    Перевод текста: Авторский (одноголосый закадровый) А. Гаврилов, Профессиональный (многоголосый закадровый) ТВ3, Авторский (одноголосый закадровый) П. Карцев Отдельным файлом
    Субтитры подготовлены: Rus, Eng SRT
    Оригинальная аудиодорожка: английский

    Главный режиссер: Стюарт Гордон / Stuart Gordon

    Актеры: Джеффри Комбс, Барбара Крэмптон, Кен Фори, Тед Сорел, Кэролин Перди-Гордон, Банни Саммерс, Брюс МакГуайр, Дел Рассел, Дэйл Виатт

    Сюжет
    Согласно теории ученого Преториуса человек, сам того не подозревая, сосуществует с другим невидимым миром, окружающим нас все время. Ключом для проникновения в этот параллельный мир является наш третий глаз, бездействующий орган в лобовой части.
    Когда резонатор (машина, которую Претриус создал для стимуляции третьего глаза) заработал, ученым удалось проникнуть в империю шестого чувства и вызвать подтверждение извне: они увидели вокруг себя жутких и отвратительных тварей, скользящих в воздухе! Но одно из чудовищ неожиданно разъярилось и откусило Преториусу голову.


    Качество фильма: BDRip-AVC
    Тип видео: MKV
    Информация о видео: 1 730 Kbps, 960 x 520 (1.846), 23.976 fps
    Информация о звуке 1: AC-3, 256 Kbps, 4 channels, 48.0 KHz - AVO А. Гаврилов
    Информация о звуке 2: AC-3, 192 Kbps, 2 channels, 48.0 KHz - MVO ТВ3
    Информация о звуке 3: AC-3, 256 Kbps, 4 channels, 48.0 KHz - Eng
    Информация о звуке 4: AC-3, 192 Kbps, 2 channels, 48.0 KHz - AVO П. Карцев Отдельным файлом

    MediaInfo
    Format : Matroska
    Format version : Version 4 / Version 2
    File size : 1.46 GiB
    Duration : 1h 25mn
    Overall bit rate : 2 436 Kbps
    Encoded date : UTC 2013-05-22 11:12:34
    Writing application : mkvmerge v6.2.0 (;Promised Land;) built on Apr 28 2013 12:22:01
    Writing library : libebml v1.3.0 libmatroska v1.4.0

    Video
    ID : 1
    Format : AVC
    Format/Info : Advanced Video Codec
    Format profile : High@L4.1
    Format settings, CABAC : Yes
    Format settings, ReFrames : 11 frames
    Codec ID : V_MPEG4/ISO/AVC
    Duration : 1h 25mn
    Bit rate : 1 730 Kbps
    Width : 960 pixels
    Height : 520 pixels
    Display aspect ratio : 1.85:1
    Frame rate mode : Constant
    Frame rate : 23.976 fps
    Color space : YUV
    Chroma subsampling : 4:2:0
    Bit depth : 8 bits
    Scan type : Progressive
    Bits/(Pixel*Frame) : 0.145
    Stream size : 1.01 GiB (69%)
    Writing library : x264 core 133 r2334 a3ac64b
    Encoding settings : cabac=1 / ref=11 / deblock=1:-2:-1 / analyse=0x3:0x133 / me=umh / subme=11 / psy=1 / psy_rd=1.00:0.05 / mixed_ref=1 / me_range=48 / chroma_me=1 / trellis=2 / 8x8dct=1 / cqm=0 / deadzone=21,11 / fast_pskip=0 / chroma_qp_offset=-3 / threads=12 / lookahead_threads=2 / sliced_threads=0 / nr=0 / decimate=1 / interlaced=0 / bluray_compat=0 / constrained_intra=0 / bframes=8 / b_pyramid=2 / b_adapt=2 / b_bias=0 / direct=3 / weightb=1 / open_gop=0 / weightp=2 / keyint=250 / keyint_min=23 / scenecut=40 / intra_refresh=0 / rc_lookahead=60 / rc=2pass / mbtree=1 / bitrate=1730 / ratetol=1.0 / qcomp=0.60 / qpmin=0 / qpmax=69 / qpstep=4 / cplxblur=20.0 / qblur=0.5 / ip_ratio=1.40 / aq=1:1.00
    Language : English
    Default : Yes
    Forced : No

    Audio #1
    ID : 2
    Format : AC-3
    Format/Info : Audio Coding 3
    Mode extension : CM (complete main)
    Format settings, Endianness : Big
    Codec ID : A_AC3
    Duration : 1h 25mn
    Bit rate mode : Constant
    Bit rate : 256 Kbps
    Channel(s) : 4 channels
    Channel positions : Front: L C R, Side: C
    Sampling rate : 48.0 KHz
    Bit depth : 16 bits
    Compression mode : Lossy
    Stream size : 157 MiB (11%)
    Title : AVO (Gavrilov)
    Language : Russian
    Default : Yes
    Forced : No

    Audio #2
    ID : 3
    Format : AC-3
    Format/Info : Audio Coding 3
    Mode extension : CM (complete main)
    Format settings, Endianness : Big
    Codec ID : A_AC3
    Duration : 1h 25mn
    Bit rate mode : Constant
    Bit rate : 192 Kbps
    Channel(s) : 2 channels
    Channel positions : Front: L R
    Sampling rate : 48.0 KHz
    Bit depth : 16 bits
    Compression mode : Lossy
    Stream size : 118 MiB (8%)
    Title : MVO (TV3)
    Language : Russian
    Default : No
    Forced : No

    Audio #3
    ID : 4
    Format : AC-3
    Format/Info : Audio Coding 3
    Mode extension : CM (complete main)
    Format settings, Endianness : Big
    Codec ID : A_AC3
    Duration : 1h 25mn
    Bit rate mode : Constant
    Bit rate : 256 Kbps
    Channel(s) : 4 channels
    Channel positions : Front: L C R, Side: C
    Sampling rate : 48.0 KHz
    Bit depth : 16 bits
    Compression mode : Lossy
    Stream size : 157 MiB (11%)
    Title : Eng (Original)
    Language : English
    Default : No
    Forced : No

    Text #1
    ID : 5
    Format : UTF-8
    Codec ID : S_TEXT/UTF8
    Codec ID/Info : UTF-8 Plain Text
    Title : Rus
    Language : Russian
    Default : No
    Forced : No

    Text #2
    ID : 6
    Format : UTF-8
    Codec ID : S_TEXT/UTF8
    Codec ID/Info : UTF-8 Plain Text
    Title : Eng
    Language : English
    Default : No
    Forced : No
    Скриншоты для ознакомления

    Размер скачиваемого торрента: 1.57 GB (1687097508 Bytes)

    Извне / From Beyond (1986) BDRip-AVC | Режиссёрская версия / Directors Cut торрент скачать бесплатно
    загрузка...
    Рейтинг →
     (голосов: 1, оценка 5/5, голосовать можно 1 раз )

    Другие торренты по теме:

  • Вторжение извне / U.F.O. (2012) HDRip | L1
  • Извне / From Beyond (1986) HDTVRip | A
  • Аркадий и Борис Стругацкие - Извне (2013) MP3
  • Извне / C того света / From Beyond (1986) BDRip-AVC от New-Team | Directors Cut | D
  • Извне: Пришествие света. Коллекционное издание (2015) PC
  • Извне / From Beyond / 1986 / АП (Иванов, Карцев, Гаврилов) / DVDRip (AVC)
  • Извне / Из потустороннего мира / H.P. Lovecraft’s From Beyond (1999) DVDRip-AVC | L1


    • Комментарии (0):

      Информация

      Информация

        Посетители, находящиеся в группе Гости, не могут оставлять комментарии в данной новости.

        ↓ Меню



        ↓ Опрос

        А Вы добавили сайт в закладки?
        Да
        Не


        Top 10 за месяц (Фильмы)