.
Авторизация | Регистрация
Хочешь лучшие торренты? Добавь свой email!
Добавить
» » Саймон Бирч / Simon Birch (1998) WEB-DL 720p от HDClub скачать торрент бесплатно




    Саймон Бирч / Simon Birch (1998) WEB-DL 720p от HDClub скачать торрент бесплатно

    Опубликовал: Админ | Дата: 27-02-2015, 11:09 | Просмотров: 311



    Детально о кино
    Русское название: Саймон Бирч
    Русское название в мировом прокате: Simon Birch
    Создали в: 1998
    Категория жанра: Драма, комедия
    Главный режиссер: Марк Стивен Джонсон
    Актеры: Йен Майкл Смит, Джозеф Маццелло, Эшли Джадд, Оливер Платт, Дэвид Стрэтэйрн, Дэна Айви, Беатрис Уинд, Джен Хукс, Сисилли Кэрролл, Самела Кэй

    Сюжет фильма:
    Экранизация романа Джона Уинслоу Ирвинга Молитва об Оуэне Мини. В американском городке растут два мальчика. Один, Джо, чей отец неизвестен, принадлежит к семейству основателей города. И второй – очень маленький мальчик со странным голосом – Саймон Бирч. Саймон настолько мал, что даже отбить бейсбольной битой мяч для него проблема. Когда же ему, наконец, удается это сделать, он случайно убивает мячом мать своего лучшего друга… Это фильм о дружбе, о взрослении, о вере, о подвиге. Саймон убежден: скоро он совершит подвиг, правда, еще не знает какой.

    Знаете ли Вы, что...

    ? Фильм снят по мотивам романа Джона Ирвинга Молитва об Оуэне Мини (A Prayer for Owen Meany, 1989).
    ? Американский писатель Джон Ирвинг полагал, что его роман Молитва об Оуэне Мини не может быть успешно претворён в фильм и продал права на экранизацию под условием, что его название будет изменено. Альтернативный вариант Саймон Бирч был предложен самим автором.
    ? Роль Ребекки Вентворт могла достаться Сандре Буллок.

    MediaInfo

    Общее
    Уникальный идентификатор : 241759194419288875157497636298509569355 (0xB5E1208F4819E1ABB10758509D34CD4B)
    Полное имя : Simon.Birch.1998.720p.WEB-DL.2xRus.Eng.HDCLUB.mkv
    Формат : Matroska
    Версия формата : Version 2
    Размер файла : 4,03 Гбайт
    Продолжительность : 1 ч. 54 м.
    Общий поток : 5056 Кбит/сек
    Название фильма : Simon Birch (1998) - Release for HDCLUB
    Дата кодирования : UTC 2013-12-24 21:40:40
    Программа кодирования : mkvmerge v3.4.0 (;Rapunzel;) built on May 15 2010 09:38:20
    Библиотека кодирования : libebml v0.8.0 libmatroska v0.9.0

    Видео
    Идентификатор : 1
    Формат : AVC
    Формат/Информация : Advanced Video Codec
    Профиль формата : High@L3.1
    Параметр CABAC формата : Нет
    Параметр ReFrames формата : 2 кадра
    Идентификатор кодека : V_MPEG4/ISO/AVC
    Продолжительность : 1 ч. 54 м.
    Битрейт : 3995 Кбит/сек
    Ширина : 1280 пикселей
    Высота : 688 пикселей
    Соотношение сторон : 1,85:1
    Режим частоты кадров : Постоянный
    Частота кадров : 23,976 кадра/сек
    Цветовое пространство : YUV
    Субдискретизация насыщенности : 4:2:0
    Битовая глубина : 8 бит
    Тип развёртки : Прогрессивная
    Бит/(Пиксели*Кадры) : 0.189
    Размер потока : 3,18 Гбайт (79%)
    Заголовок : Simon Birch (1998) - Release for HDCLUB
    Язык : English
    Default : Да
    Forced : Нет
    Основные цвета : BT.709
    Характеристики трансфера : BT.709
    Коэффициенты матрицы : BT.709

    Аудио #1
    Идентификатор : 2
    Формат : AC-3
    Формат/Информация : Audio Coding 3
    Расширение режима : CM (complete main)
    Параметр Endianness формата : Big
    Идентификатор кодека : A_AC3
    Продолжительность : 1 ч. 54 м.
    Вид битрейта : Постоянный
    Битрейт : 384 Кбит/сек
    Каналы : 6 каналов
    Расположение каналов : Front: L C R, Side: L R, LFE
    Частота : 48,0 КГц
    Битовая глубина : 16 бит
    Метод сжатия : С потерями
    Размер потока : 313 Мбайт (8%)
    Заголовок : AC3 5.1 @ 384 kbps - DVO, Videoservice
    Язык : Russian
    Default : Да
    Forced : Нет

    Аудио #2
    Идентификатор : 3
    Формат : AC-3
    Формат/Информация : Audio Coding 3
    Расширение режима : CM (complete main)
    Параметр Endianness формата : Big
    Идентификатор кодека : A_AC3
    Продолжительность : 1 ч. 54 м.
    Вид битрейта : Постоянный
    Битрейт : 192 Кбит/сек
    Каналы : 2 канала
    Расположение каналов : Front: L R
    Частота : 48,0 КГц
    Битовая глубина : 16 бит
    Метод сжатия : С потерями
    Размер потока : 157 Мбайт (4%)
    Заголовок : AC3 2.0 @ 192 kbps - MVO, TV1000
    Язык : Russian
    Default : Нет
    Forced : Нет

    Аудио #3
    Идентификатор : 4
    Формат : AC-3
    Формат/Информация : Audio Coding 3
    Расширение режима : CM (complete main)
    Параметр Endianness формата : Big
    Идентификатор кодека : A_AC3
    Продолжительность : 1 ч. 54 м.
    Вид битрейта : Постоянный
    Битрейт : 384 Кбит/сек
    Каналы : 6 каналов
    Расположение каналов : Front: L C R, Side: L R, LFE
    Частота : 48,0 КГц
    Битовая глубина : 16 бит
    Метод сжатия : С потерями
    Размер потока : 313 Мбайт (8%)
    Заголовок : AC3 5.1 @ 384 kbps
    Язык : English
    Default : Нет
    Forced : Нет

    Текст
    Идентификатор : 5
    Формат : UTF-8
    Идентификатор кодека : S_TEXT/UTF8
    Идентификатор кодека/Информация : UTF-8 Plain Text
    Язык : English
    Default : Нет
    Forced : Нет

    Меню
    00:00:00.000 : en:Program Start
    00:01:18.000 : en:Opening Credits
    00:04:24.000 : en:Miss Leavey
    00:08:56.000 : en:A Small Miracle
    00:12:48.000 : en:Miss Wenteworth
    00:15:44.000 : en:Marjorie
    00:22:49.000 : en:You Open It
    00:29:27.000 : en:Coffee And Doughnuts
    00:35:35.000 : en:Swing Away
    00:41:52.000 : en:A Gift In Return
    00:45:54.000 : en:Life Goes On
    00:48:08.000 : en:Running Out Of Time
    00:50:10.000 : en:Is It Mr. Baker?
    01:00:52.000 : en:A Friend In Need
    01:05:06.000 : en:Volunteers
    01:07:53.000 : en:Reverend Russell;s Rules
    01:13:54.000 : en:Simon;s Impulse
    01:16:57.000 : en:Punishment
    01:27:51.000 : en:The Secret Revealed
    01:33:01.000 : en:On The Way Home
    01:35:35.000 : en:Time For A Hero
    01:43:47.000 : en:200 Mississippi
    01:47:51.000 : en:Joe;s Real Father
    01:50:25.000 : en:End Credits





    Снималось в: США
    Киностудия: Caravan Pictures, Hollywood Pictures
    Время просмотра: 01:54:01
    Перевод текста 1: Профессиональный (двухголосый закадровый) Видеосервис
    Перевод текста 2: Профессиональный (многоголосый закадровый) TV1000

    Файл
    Кодек для видео: MPEG-4 AVC
    Качество фильма: WEB-DL 720p
    Информация о видео: 1280x688 at 23.976 fps, ~4094 kbps avg
    Информация о звуке:
    Аудио 1: Russian: 48 kHz, AC3, 3/2 (L,C,R,l,r) LFE ch, ~384.00 kbps avg |Двухголосый закадровый, Видеосервис|
    Аудио 2: Russian: 48 kHz, AC3, 2/0 (L,R) ch, ~192.00 kbps avg |Многоголосый закадровый, TV1000|
    Аудио 3: English: 48 kHz, AC3, 3/2 (L,C,R,l,r) LFE ch, ~384.00 kbps avg
    Субтитры: Английские

    Скриншоты для ознакомления



    Релиз подготовил: by sergey_n
    Размер скачиваемого торрента: 4.03 GB (4323363491 Bytes)

    Саймон Бирч / Simon Birch (1998) WEB-DL 720p от HDClub торрент скачать бесплатно
    загрузка...
    Рейтинг →
     (голосов: 1, оценка 5/5, голосовать можно 1 раз )

    Другие торренты по теме:

  • Саймон Бирч / Simon Birch (1998) DVDRip от Scarabey | Р
  • Саймон Бирч / Simon Birch (1998) HDRip от Scarabey | Р скачать через торрент бесплатно
  • Саймон Бирч / Simon Birch (1998) HDRip от Scarabey | Р скачать через торрент бесплатно


    • Комментарии (0):

      Информация

      Информация

        Посетители, находящиеся в группе Гости, не могут оставлять комментарии в данной новости.

        ↓ Меню



        ↓ Опрос

        А Вы добавили сайт в закладки?
        Да
        Не


        Top 10 за месяц (Фильмы)