.
Авторизация | Регистрация
Хочешь лучшие торренты? Добавь свой email!
Добавить
» » Убрать перископ / Down Periscope (1996) HDTVRip от Leon-masl | P, A скачать торрент бесплатно




    Убрать перископ / Down Periscope (1996) HDTVRip от Leon-masl | P, A скачать торрент бесплатно

    Опубликовал: Админ | Дата: 27-02-2015, 11:09 | Просмотров: 388



    Детально о кино
    Русское название: Убрать перископ
    Русское название в мировом прокате: Down Periscope
    Создали в: 1996
    Категория жанра: Комедия
    Главный режиссер: Дэвид С. Уорд / David S. Ward
    Актеры: Келси Грэммер, Лорен Холли, Роб Шнайдер, Гарри Дин Стэнтон, Брюс Дерн, Уильям Х. Мэйси, Кен Хадсон Кэмпбелл, Тоби Хасс, Дуэйн Мартин, Джонатан Пеннер

    Сюжет фильма:
    Вместо долгожданной атомной подводной лодки капитан Том Додж получает в свое распоряжение допотопную дизельную развалину. Судя по внешнему виду, единственное, на что она способна — это последнее и очень быстрое погружение. Однако его это не смущает, ведь он самый веселый и бесшабашный капитан флота США, настоящий морской волк с татуировкой на интимном месте.

    Под стать ему подобрался и экипаж. Более эксцентричных и нелепых матросов в природе не существует. А когда в качестве эксперимента на лодку назначается женщина-офицер, и без того неспокойные моряки просто сходят с ума…




    Снималось в: США
    Время просмотра: 01:28:55
    Перевод текста: Профессиональный (многоголосый закадровый), Авторский (одноголосый закадровый) Санаев

    Файл
    Кодек для видео: XviD
    Качество фильма: HDTVRip с |HDTV 1080i|
    Информация о видео: 720x384, 25.000 fps, 1608 kbps
    Информация о звуке 1: 48 kHz, AC3, 2/0 (L,R) ch, ~192.00 kbps avg |Многоголосый закадровый|
    Информация о звуке 2: 48 kHz, AC3, 3/2 (L,C,R,l,r) LFE ch, ~384.00 kbps avg |Санаев|
    MI
    Общее
    Полное имя : Down_Periscope_1996_HDTVRip.avi
    Формат : AVI
    Формат/Информация : Audio Video Interleave
    Размер файла : 1,37 Гбайт
    Продолжительность : 1 ч. 28 м.
    Общий поток : 2199 Кбит/сек
    Программа кодирования : VirtualDubMod 1.5.10.2 (build 2542/release)
    Библиотека кодирования : VirtualDubMod build 2542/release

    Видео
    Идентификатор : 0
    Формат : MPEG-4 Visual
    Профиль формата : Advanced Simple@L5
    Параметр BVOP формата : 1
    Параметр QPel формата : Нет
    Параметр GMC формата : Без точки перехода
    Параметр матрицы формата : Выборочная
    Идентификатор кодека : XVID
    Идентификатор кодека/Подсказка : XviD
    Продолжительность : 1 ч. 28 м.
    Битрейт : 1608 Кбит/сек
    Ширина : 720 пикс.
    Высота : 384 пикс.
    Соотношение сторон : 1,875
    Частота кадров : 25,000 кадр/сек
    Цветовое пространство : YUV
    Подвыборка цветности : 4:2:0
    Битовая глубина : 8 бит
    Тип развёртки : Прогрессивная
    Метод сжатия : С потерями
    Бит/(Пиксели*Кадры) : 0.233
    Размер потока : 1023 Мбайт (73%)
    Библиотека кодирования : XviD 73

    Аудио #1
    Идентификатор : 1
    Формат : AC-3
    Формат/Информация : Audio Coding 3
    Расширение режима : CM (complete main)
    Идентификатор кодека : 2000
    Продолжительность : 1 ч. 28 м.
    Вид битрейта : Постоянный
    Битрейт : 192 Кбит/сек
    Канал(ы) : 2 канала(ов)
    Расположение каналов : Front: L R
    Частота : 48,0 КГц
    Битовая глубина : 16 бит
    Метод сжатия : С потерями
    Размер потока : 122 Мбайт (9%)
    Выравнивание : Разделение по промежуткам
    Продолжительность промежутка : 40 мс. (1,00 видеокадр)
    Время предзагрузки промежутка : 500 ms

    Аудио #2
    Идентификатор : 2
    Формат : AC-3
    Формат/Информация : Audio Coding 3
    Расширение режима : CM (complete main)
    Идентификатор кодека : 2000
    Продолжительность : 1 ч. 28 м.
    Вид битрейта : Постоянный
    Битрейт : 384 Кбит/сек
    Канал(ы) : 6 канала(ов)
    Расположение каналов : Front: L C R, Side: L R, LFE
    Частота : 48,0 КГц
    Битовая глубина : 16 бит
    Метод сжатия : С потерями
    Размер потока : 244 Мбайт (17%)
    Выравнивание : Разделение по промежуткам
    Продолжительность промежутка : 40 мс. (1,00 видеокадр)
    Время предзагрузки промежутка : 500 ms
    Скриншоты для ознакомления


    Релиз подготовил: Leon-masl
    Залил: leon-masl
    Размер скачиваемого торрента: 1.37 GB (1466402816 Bytes)

    Убрать перископ / Down Periscope (1996) HDTVRip от Leon-masl | P, A торрент скачать бесплатно
    загрузка...
    Рейтинг →
     (голосов: 1, оценка 5/5, голосовать можно 1 раз )

    Другие торренты по теме:

  • Убрать перископ / Down Periscope (1996) HDTVRip | A, P
  • Флот Макхейла / Убрать перископ 2 / McHales Navy (1997) HDTVRip-AVC от MediaClub
  • Убрать перископ / Down Periscope (1996) WEB-DL 720p | A, P, P2
  • Убрать перископ / Down Periscope (1996) WEB-DLRip от MegaPeer | A, P, P2
  • Убрать перископ / Down Periscope (1996) HDRip от Scarabey | P


    • Комментарии (0):

      Информация

      Информация

        Посетители, находящиеся в группе Гости, не могут оставлять комментарии в данной новости.

        ↓ Меню



        ↓ Опрос

        А Вы добавили сайт в закладки?
        Да
        Не


        Top 10 за месяц (Фильмы)