.
Авторизация | Регистрация
Хочешь лучшие торренты? Добавь свой email!
Добавить
» » Восставший из ада / Hellraiser (1987) BDRip-AVC | P, A скачать через торрент бесплатно




    Восставший из ада / Hellraiser (1987) BDRip-AVC | P, A скачать через торрент бесплатно

    Опубликовал: Админ | Дата: 27-02-2015, 11:09 | Просмотров: 291



    Восставший из ада
    Hellraiser


    Снималось в: Великобритания
    Категория жанра: ужасы, триллер
    Создали в: 1987
    Время просмотра: 01:33:22
    Перевод текста: Профессиональный (многоголосый закадровый) авторский (одноголосый закадровый)
    Субтитры подготовлены: отсутствуют

    Главный режиссер: Клайв Баркер / Clive Barker

    Актеры: Даг Брэдли, Эндрю Робинсон, Клэр Хиггинс, Эшли Лоуренс, Шон Чэпман, Оливер Смит, Роберт Хайнс, Энтони Аллен, Леон Дэвис, Майкл Кэссиди, Фрэнк Бэйкер

    Сюжет:
    Расставив вокруг себя зажженные свечи, Фрэнк открывает купленную им на восточном базаре старинную шкатулку. Легенда гласит, что живущие в ней демоны, могут доставить владельцу неописуемые наслаждения. Но Фрэнк не мог и предположить, что эта шкатулка ключ к воротам из ада…

    Качество фильма: BDRip-AVC
    Тип видео: MKV
    Информация о видео: MPEG-4 AVC, 1056x572 (1.85:1), 23.976 fps, ~3701 kbps, 0.256 bit/pixel
    Информация о звуке #1: Russian, Audio Coding 3, 48 kHz, DD 5.1 ch, CBR 384 kbps | многоголосый закадровый, R5
    Информация о звуке #2: Russian, Audio Coding 3, 48 kHz, DD 5.1 ch, CBR 384 kbps | одноголосый закадровый, Гаврилов
    Семпл

    MediaInfo

    ---NoImage x264 info: frame I:891 Avg QP:17.81 size: 80482
    ---NoImage x264 info: frame P:24757 Avg QP:20.74 size: 30907
    ---NoImage x264 info: frame B:108680 Avg QP:22.16 size: 16126
    ___________________________________________________________________
    Format : Matroska
    Format version : Version 2
    File size : 2.91 GiB
    Duration : 1h 33mn
    Overall bit rate : 4 467 Kbps
    Encoded date : UTC 2012-08-08 07:16:04
    Writing application : mkvmerge v5.6.0 (;Kenya Kane;) built on May 27 2012 16:44:04
    Writing library : libebml v1.2.3 libmatroska v1.3.0

    Video
    ID : 1
    Format : AVC
    Format/Info : Advanced Video Codec
    Format profile : High@L4.1
    Format settings, CABAC : Yes
    Format settings, ReFrames : 13 frames
    Codec ID : V_MPEG4/ISO/AVC
    Duration : 1h 33mn
    Bit rate : 3 701 Kbps
    Width : 1 056 pixels
    Height : 572 pixels
    Display aspect ratio : 1.85:1
    Frame rate : 23.976 fps
    Color space : YUV
    Chroma subsampling : 4:2:0
    Bit depth : 8 bits
    Scan type : Progressive
    Bits/(Pixel*Frame) : 0.256
    Stream size : 2.35 GiB (81%)
    Title : Hellraiser
    Writing library : x264 core 125 r2200 999b753
    Encoding settings : cabac=1 / ref=13 / deblock=1:-1:-1 / analyse=0x3:0x113 / me=umh / subme=11 / psy=1 / psy_rd=1.00:0.15 / mixed_ref=1 / me_range=32 / chroma_me=1 / trellis=2 / 8x8dct=1 / cqm=0 / deadzone=21,11 / fast_pskip=0 / chroma_qp_offset=-3 / threads=12 / lookahead_threads=2 / sliced_threads=0 / nr=0 / decimate=1 / interlaced=0 / bluray_compat=0 / constrained_intra=0 / bframes=11 / b_pyramid=2 / b_adapt=2 / b_bias=0 / direct=3 / weightb=1 / open_gop=0 / weightp=2 / keyint=240 / keyint_min=23 / scenecut=40 / intra_refresh=0 / rc_lookahead=40 / rc=2pass / mbtree=1 / bitrate=3701 / ratetol=1.0 / qcomp=0.70 / qpmin=10 / qpmax=51 / qpstep=4 / cplxblur=20.0 / qblur=0.5 / ip_ratio=1.40 / aq=2:1.00
    Language : English
    Default : Yes
    Forced : No

    Audio #1
    ID : 2
    Format : AC-3
    Format/Info : Audio Coding 3
    Mode extension : CM (complete main)
    Format settings, Endianness : Big
    Codec ID : A_AC3
    Duration : 1h 33mn
    Bit rate mode : Constant
    Bit rate : 384 Kbps
    Channel(s) : 6 channels
    Channel positions : Front: L C R, Side: L R, LFE
    Sampling rate : 48.0 KHz
    Bit depth : 16 bits
    Compression mode : Lossy
    Stream size : 256 MiB (9%)
    Title : MVO (R5)
    Language : Russian
    Default : Yes
    Forced : No

    Audio #2
    ID : 3
    Format : AC-3
    Format/Info : Audio Coding 3
    Mode extension : CM (complete main)
    Format settings, Endianness : Big
    Codec ID : A_AC3
    Duration : 1h 33mn
    Bit rate mode : Constant
    Bit rate : 384 Kbps
    Channel(s) : 6 channels
    Channel positions : Front: L C R, Side: L R, LFE
    Sampling rate : 48.0 KHz
    Bit depth : 16 bits
    Compression mode : Lossy
    Stream size : 256 MiB (9%)
    Title : AVO (Гаврилов)
    Language : Russian
    Default : No
    Forced : No

    Menu
    00:00:00.000 : en:00:00:00.000
    00:05:31.663 : en:00:05:31.663
    00:12:10.730 : en:00:12:10.730
    00:16:23.730 : en:00:16:23.730
    00:22:44.778 : en:00:22:44.778
    00:24:54.115 : en:00:24:54.115
    00:28:51.229 : en:00:28:51.229
    00:33:27.880 : en:00:33:27.880
    00:40:56.077 : en:00:40:56.077
    00:46:36.460 : en:00:46:36.460
    00:50:12.050 : en:00:50:12.050
    00:53:15.733 : en:00:53:15.733
    00:59:37.989 : en:00:59:37.989
    01:05:29.215 : en:01:05:29.215
    01:10:41.944 : en:01:10:41.944
    01:14:12.154 : en:01:14:12.154
    01:16:57.029 : en:01:16:57.029
    01:20:29.407 : en:01:20:29.407
    01:23:03.853 : en:01:23:03.853
    01:27:20.944 : en:01:27:20.944
    Скриншоты для ознакомления

    Размер скачиваемого торрента: 2.91 GB (3128692862 Bytes)

    Восставший из ада / Hellraiser (1987) BDRip-AVC | P, A скачать через торрент бесплатно
    загрузка...
    Рейтинг →
     (голосов: 1, оценка 4/5, голосовать можно 1 раз )

    Другие торренты по теме:

  • Восставший из ада 3: Ад на Земле / Hellraiser III: Hell on Earth (1992) BDRip
  • Восставший из ада 3: Ад на Земле / Hellraiser III: Hell on Earth (1992) BDRemux 1080p скачать через торрент бесплатно
  • Восставший из ада 4: Кровное родство / Hellraiser: Bloodline (1996) BDRip-AVC | P, A скачать через торрент бесплатно
  • Восставший из ада 3: Ад на Земле / Hellraiser III: Hell on Earth (1992) BDRip-AVC | P, A скачать через торрент бесплатно
  • Восставший из ада 2 / Hellbound: Hellraiser 2 (1988) BDRip-AVC | P, A скачать через торрент бесплатно
  • Восставший из ада 2 / Hellbound: Hellraiser II / (1988) BDRip by msltel | P, P2, A
  • Восставший из ада 2 / Hellbound: Hellraiser II / (1988) BDRip 720p by msltel | P, P2, A
  • Восставший из ада 4: Кровное родство / Hellraiser: Bloodline (1996) BDRip by msltel | P, A скачать через торрент бесплатно


    • Комментарии (0):

      Информация

      Информация

        Посетители, находящиеся в группе Гости, не могут оставлять комментарии в данной новости.

        ↓ Меню



        ↓ Опрос

        А Вы добавили сайт в закладки?
        Да
        Не


        Top 10 за месяц (Фильмы)