.
Авторизация | Регистрация
Хочешь лучшие торренты? Добавь свой email!
Добавить
» » Диана: История любви / Diana (2013) DVDScr | L1 скачать через торрент бесплатно




    Диана: История любви / Diana (2013) DVDScr | L1 скачать через торрент бесплатно

    Опубликовал: Админ | Дата: 27-02-2015, 11:09 | Просмотров: 267

    Принцесса, покорившая сердца миллионов. Кого любила она сама?



    Создали в: 2013
    Снималось в: Великобритания, Франция, Швеция, Бельгия
    Категория жанра: драма, мелодрама, биография
    Время просмотра: 01:47:57
    Перевод текста: Любительский (одноголосый) VANO
    Субтитры: арабские (hardsub - неотключаемые)
    Оригинальная аудиодорожка: нет
    Главный режиссер: Оливер Хиршбигель / Oliver Hirschbiegel
    Создали в: Ecosse Films, Le Pacte, Scope Pictures



    Актеры:
    Наоми Уоттс, Навин Эндрюс, Дуглас Ходж, Джеральдин Джеймс, Чарльз Эдвардс, Дэниэл Пайрри, Кэс Анвар, Джульет Стивенсон, Джонатан Керриган, Лоуренс Белчер и др.

    Сюжет:
    Принцесса Диана — самая популярная женщина своего времени, еще при жизни названная принцессой людских сердец. Она покорила сердца миллионов, ей признавались в любви все — от принца Англии до могущественных миллиардеров… Но кого любила она сама?

    Через несколько лет после расставания с принцем Чарльзом леди Диана почти забывает о личной жизни и посвящает себя общественной деятельности. Ее график заполнен до предела, встречи и мероприятия идут нескончаемой чередой, пока, посещая одну из лондонских больниц, она случайно знакомится с 36-летним кардиохирургом. Так начинается роман, ставший по свидетельству многих друзей Дианы любовью всей ее жизни. Официальные аудиенции в Кенсингтонском дворце и тайные свидания в ночных клубах, радость коротких встреч и боль расставаний, желание всегда быть вместе и стремление избежать огласки…

    Дата мировой премьеры: 5 сентября 2013
    Дата российской премьеры: 5 декабря 2013, Вольга, Премиум Фильм
    Дата выхода DVD релиза: 30 января 2014, CP Дистрибуция

    Качество фильма: DVDScreener | Сэмпл
    Тип видео: AVI
    Информация о видео: MPEG4, XviD, 720x384 (1.875), 23.976 fps, 1 614 Kbps (0.243 bit/pixel)
    Информация о звуке: AC-3, 48.0 KHz, 2 ch, 192 Kbps, CBR
    MI
    General
    Complete name : Diana.2013.L1.SCR.1400MB.avi
    Format : AVI
    Format/Info : Audio Video Interleave
    File size : 1.37 GiB
    Duration : 1h 47mn
    Overall bit rate : 1 815 Kbps
    Writing application : VirtualDubMod 1.5.10.2 (build 2540/release)
    Writing library : VirtualDubMod build 2540/release

    Video
    ID : 0
    Format : MPEG-4 Visual
    Format profile : Advanced Simple@L5
    Format settings, BVOP : 2
    Format settings, QPel : No
    Format settings, GMC : No warppoints
    Format settings, Matrix : Default (MPEG)
    Codec ID : XVID
    Codec ID/Hint : XviD
    Duration : 1h 47mn
    Bit rate : 1 614 Kbps
    Width : 720 pixels
    Height : 384 pixels
    Display aspect ratio : 1.85:1
    Frame rate : 23.976 fps
    Color space : YUV
    Chroma subsampling : 4:2:0
    Bit depth : 8 bits
    Scan type : Progressive
    Compression mode : Lossy
    Bits/(Pixel*Frame) : 0.243
    Stream size : 1.22 GiB (89%)
    Writing library : XviD 73

    Audio
    ID : 1
    Format : AC-3
    Format/Info : Audio Coding 3
    Mode extension : CM (complete main)
    Format settings, Endianness : Big
    Codec ID : 2000
    Duration : 1h 47mn
    Bit rate mode : Constant
    Bit rate : 192 Kbps
    Channel count : 2 channels
    Channel positions : Front: L R
    Sampling rate : 48.0 KHz
    Bit depth : 16 bits
    Compression mode : Lossy
    Stream size : 148 MiB (11%)
    Alignment : Split accross interleaves
    Interleave, duration : 42 ms (1.00 video frame)
    Interleave, preload duration : 500 ms
    Скриншоты для ознакомления

    Релиз:

    Размер скачиваемого торрента: 1.37 GB (1469784064 Bytes)

    Диана: История любви / Diana (2013) DVDScr | L1 скачать через торрент бесплатно
    загрузка...
    Рейтинг →
     (голосов: 1, оценка 5/5, голосовать можно 1 раз )

    Другие торренты по теме:

  • Диана: История любви / Diana (2013) WEBRip | D скачать через торрент бесплатно
  • Диана: История любви / Diana (2013) WEB-DL 720p | iTunes скачать через торрент бесплатно
  • Диана: История любви / Diana (2013) WEB-DLRip | iTunes
  • Диана: История любви / Diana (2013) WEB-DLRip от RG BroDim | iTunes скачать через торрент бесплатно
  • Диана: История любви / Diana (2013) Blu-Ray 1080p | Лицензия
  • Диана: История любви / Diana (2013) BDRemux 1080p от ExKinoRay | Лицензия
  • Диана: История любви / Diana (2013) HDRip | Лицензия
  • Диана: История любви / Diana (2013) BDRip 720p | iTunes


    • Комментарии (0):

      Информация

      Информация

        Посетители, находящиеся в группе Гости, не могут оставлять комментарии в данной новости.

        ↓ Меню



        ↓ Опрос

        А Вы добавили сайт в закладки?
        Да
        Не


        Top 10 за месяц (Фильмы)