.
Авторизация | Регистрация
Хочешь лучшие торренты? Добавь свой email!
Добавить
» » Психо 2 / Psycho II (1983) BDRip 720p от MediaClub |P, L1 скачать через торрент бесплатно




    Психо 2 / Psycho II (1983) BDRip 720p от MediaClub |P, L1 скачать через торрент бесплатно

    Опубликовал: Админ | Дата: 27-02-2015, 11:09 | Просмотров: 304



    Детально о кино
    Русское название: Психо 2
    Русское название в мировом прокате: Psycho II
    Создали в: 1983
    Категория жанра: Ужасы, триллер, детектив
    Главный режиссер: Ричард Франклин
    Актеры: Энтони Перкинс, Вера Майлз, Мег Тилли, Роберт Лоджа, Дэннис Франц, Хью Гиллам, Клодия Брайар, Роберт Алан Браун, Бен Хартиган, Ли Гарлингтон

    Сюжет фильма:
    Прошло 22 года, и Норман Бэйтс, наконец, вернулся домой. Все это мучительно долгое время герой провел в заключении, в доме для душевнобольных.Но теперь, по закону штата Калифорния, Норман признан вменяемым и выпущен на свободу. Путь героя лежит к жуткому дому на холме, который Норман называл своим домом, своим… и мамы.Но чей страшный силуэт снова маячит в окне? Спустя два десятилетия зло снова проснулось и ознаменовало свое пробуждение грудой окровавленных трупов!



    Снималось в: США / Oak, Universal Pictures
    Время просмотра: 01:52:46
    Перевод текста: Профессиональный многоголосый, любительский одноголосый

    Файл
    Кодек для видео: x264
    Качество фильма: BDRip 720p
    Информация о видео: MPEG-4 AVC, 7650 Кбит/с, 1280x696, 23.976 кадр/с
    Информация о звуке #1: Русский (AC3, 2 ch, 192 Кбит/с) / Профессиональный многоголосый
    Информация о звуке #2: Русский (AC3, 2 ch, 192 Кбит/с) / Любительский одноголосый
    Информация о звуке #3: Английский (AC3, 2 ch, 192 Кбит/с)
    Субтитры: Английские

    Семпл

    О релизе
    • Синхронизация звука kaspr

    MI
    x264 info: frame I:1025 Avg QP:16.87 size:133236
    x264 info: frame P:26569 Avg QP:18.71 size: 63922
    x264 info: frame B:134621 Avg QP:20.76 size: 34399

    Format : Matroska
    Format version : Version 4 / Version 2
    File size : 6.48 GiB
    Duration : 1h 52mn
    Overall bit rate : 8 224 Kbps
    Movie name : -=MediaClub - Odessit=-
    Encoded date : UTC 2013-12-24 18:50:23
    Writing application : mkvmerge v6.1.0 (;Old Devil;) built on Mar 4 2013 09:10:42
    Writing library : libebml v1.3.0 libmatroska v1.4.0

    Video
    ID : 1
    Format : AVC
    Format/Info : Advanced Video Codec
    Format profile : High@L4.1
    Format settings, CABAC : Yes
    Format settings, ReFrames : 9 frames
    Codec ID : V_MPEG4/ISO/AVC
    Duration : 1h 52mn
    Bit rate : 7 650 Kbps
    Width : 1 280 pixels
    Height : 696 pixels
    Display aspect ratio : 16:9
    Frame rate : 23.976 fps
    Color space : YUV
    Chroma subsampling : 4:2:0
    Bit depth : 8 bits
    Scan type : Progressive
    Bits/(Pixel*Frame) : 0.358
    Stream size : 5.89 GiB (91%)
    Writing library : x264 core 130 r2273 b3065e6
    Encoding settings : cabac=1 / ref=9 / deblock=1:-3:-3 / analyse=0x3:0x133 / me=umh / subme=11 / psy=1 / psy_rd=1.00:0.20 / mixed_ref=1 / me_range=48 / chroma_me=1 / trellis=2 / 8x8dct=1 / cqm=0 / deadzone=21,11 / fast_pskip=0 / chroma_qp_offset=-3 / threads=6 / lookahead_threads=1 / sliced_threads=0 / nr=0 / decimate=0 / interlaced=0 / bluray_compat=0 / constrained_intra=0 / bframes=13 / b_pyramid=2 / b_adapt=2 / b_bias=0 / direct=3 / weightb=1 / open_gop=0 / weightp=2 / keyint=240 / keyint_min=23 / scenecut=40 / intra_refresh=0 / rc=2pass / mbtree=0 / bitrate=7650 / ratetol=1.0 / qcomp=0.60 / qpmin=0 / qpmax=69 / qpstep=4 / cplxblur=20.0 / qblur=0.5 / ip_ratio=1.40 / pb_ratio=1.30 / aq=1:1.00
    Language : English

    Audio #1
    ID : 2
    Format : AC-3
    Format/Info : Audio Coding 3
    Mode extension : CM (complete main)
    Codec ID : A_AC3
    Duration : 1h 52mn
    Bit rate mode : Constant
    Bit rate : 192 Kbps
    Channel(s) : 2 channels
    Channel positions : Front: L R
    Sampling rate : 48.0 KHz
    Bit depth : 16 bits
    Compression mode : Lossy
    Stream size : 155 MiB (2%)
    Title : Профессиональный многоголосый
    Language : Russian

    Audio #2
    ID : 3
    Format : AC-3
    Format/Info : Audio Coding 3
    Mode extension : CM (complete main)
    Codec ID : A_AC3
    Duration : 1h 52mn
    Bit rate mode : Constant
    Bit rate : 192 Kbps
    Channel(s) : 2 channels
    Channel positions : Front: L R
    Sampling rate : 48.0 KHz
    Bit depth : 16 bits
    Compression mode : Lossy
    Stream size : 155 MiB (2%)
    Title : Любительский одноголосый
    Language : Russian

    Audio #3
    ID : 4
    Format : AC-3
    Format/Info : Audio Coding 3
    Mode extension : CM (complete main)
    Codec ID : A_AC3
    Duration : 1h 52mn
    Bit rate mode : Constant
    Bit rate : 192 Kbps
    Channel(s) : 2 channels
    Channel positions : Front: L R
    Sampling rate : 48.0 KHz
    Bit depth : 16 bits
    Compression mode : Lossy
    Stream size : 155 MiB (2%)
    Language : English

    Text
    ID : 5
    Format : UTF-8
    Codec ID : S_TEXT/UTF8
    Codec ID/Info : UTF-8 Plain Text
    Language : English

    Menu
    00:00:00.000 : :Chapter 01
    00:10:44.268 : :Chapter 02
    00:18:42.121 : :Chapter 03
    00:27:08.627 : :Chapter 04
    00:33:28.631 : :Chapter 05
    00:42:39.181 : :Chapter 06
    00:52:07.749 : :Chapter 07
    01:02:04.470 : :Chapter 08
    01:14:09.069 : :Chapter 09
    01:25:28.748 : :Chapter 10
    01:32:42.557 : :Chapter 11
    01:40:21.015 : :Chapter 12

    Скриншоты для ознакомления


    Релиз подготовил: |
    Размер скачиваемого торрента: 6.48 GB (6955119080 Bytes)

    Психо 2 / Psycho II (1983) BDRip 720p от MediaClub |P, L1 скачать через торрент бесплатно
    загрузка...
    Рейтинг →
     (голосов: 1, оценка 3/5, голосовать можно 1 раз )

    Другие торренты по теме:

  • Психо 2 / Psycho 2 (1983) DVDRip | А
  • Психо 2 / Psycho II (1983) BDRip от HQCLUB
  • Психо-паспорт 2 / Psycho-Pass 2


    • Комментарии (0):

      Информация

      Информация

        Посетители, находящиеся в группе Гости, не могут оставлять комментарии в данной новости.

        ↓ Меню



        ↓ Опрос

        А Вы добавили сайт в закладки?
        Да
        Не


        Top 10 за месяц (Фильмы)