.
Авторизация | Регистрация
Хочешь лучшие торренты? Добавь свой email!
Добавить
» » Прощай, Эммануэль / Goodbye Emmanuelle (1977) BDRip-AVC от MediaClub | L1 скачать через торрент бесплатно




    Прощай, Эммануэль / Goodbye Emmanuelle (1977) BDRip-AVC от MediaClub | L1 скачать через торрент бесплатно

    Опубликовал: Админ | Дата: 27-02-2015, 11:09 | Просмотров: 340



    Детально о кино
    Русское название: Прощай, Эммануэль
    Русское название в мировом прокате: Goodbye Emmanuelle
    Создали в: 1977
    Категория жанра: Мелодрама, драма, эротикa
    Главный режиссер: Франсуа Летерье
    Актеры: Сильвия Кристель, Умберто Орсини, Сильви Феннек, Жан-Пьер Бувье, Александра Стюарт, Ольга Жорж-Пико, Эрик Колен, Шарлотт Александра, Каролина Лоранс, Джек Аллен, Жак Дониоль-Валькроз, Грег Жермен, Боб Асклеф, Патрик Виктор

    Сюжет фильма:
    Она была рьяной искательницей эротических приключений, никогда не прекращающей своей неистовой гонки за наслаждением. И вдруг произошло совершенно невероятное. Исполненная сексуальной свободы, Эммануэль попадает в классическую, но парадоксальную ситуацию — ситуацию Любви с большой буквы. Страстно и безоглядно она порывает с привычной жизнью, влекомая этим неведомым доселе чувством.



    Снималось в: Франция / Parafrance Films, Trinacra Films
    Время просмотра: 01:38:10
    Перевод текста: Любительский одноголосый

    Файл
    Кодек для видео: x264
    Качество фильма: BDRip-AVC
    Информация о видео: MPEG-4 AVC, 2604 Кбит/с, 1024x436, 23.976 кадр/с
    Информация о звуке #1: Русский (AC3, 2 ch, 192 Кбит/с) / Любительский одноголосый
    Информация о звуке #2: Английский (AC3, 2 ch, 192 Кбит/с)
    Информация о звуке #3: Французский (AC3, 2 ch, 192 Кбит/с)
    Субтитры: Английские

    Семпл


    О релизе
    • За исходник спасибо Remux (HDTracker)
    • За постер спасибо: Media-Art-Club

    MI
    x264 info: frame I:796 Avg QP:15.22 size: 85295
    x264 info: frame P:33229 Avg QP:18.08 size: 28685
    x264 info: frame B:107214 Avg QP:19.20 size: 8366

    Format : Matroska
    Format version : Version 4 / Version 2
    File size : 2.18 GiB
    Duration : 1h 38mn
    Overall bit rate : 3 183 Kbps
    Movie name : -=MediaClub - Odessit=-
    Encoded date : UTC 2013-12-24 17:06:26
    Writing application : mkvmerge v6.1.0 (;Old Devil;) built on Mar 4 2013 09:10:42
    Writing library : libebml v1.3.0 libmatroska v1.4.0

    Video
    ID : 1
    Format : AVC
    Format/Info : Advanced Video Codec
    Format profile : High@L4.1
    Format settings, CABAC : Yes
    Format settings, ReFrames : 9 frames
    Codec ID : V_MPEG4/ISO/AVC
    Duration : 1h 38mn
    Bit rate : 2 604 Kbps
    Width : 1 024 pixels
    Height : 436 pixels
    Display aspect ratio : 2.35:1
    Frame rate : 23.976 fps
    Color space : YUV
    Chroma subsampling : 4:2:0
    Bit depth : 8 bits
    Scan type : Progressive
    Bits/(Pixel*Frame) : 0.243
    Stream size : 1.74 GiB (80%)
    Writing library : x264 core 130 r2273 b3065e6
    Encoding settings : cabac=1 / ref=9 / deblock=1:-2:-2 / analyse=0x3:0x133 / me=umh / subme=11 / psy=1 / psy_rd=1.00:0.20 / mixed_ref=1 / me_range=48 / chroma_me=1 / trellis=2 / 8x8dct=1 / cqm=0 / deadzone=21,11 / fast_pskip=0 / chroma_qp_offset=-3 / threads=6 / lookahead_threads=1 / sliced_threads=0 / nr=0 / decimate=0 / interlaced=0 / bluray_compat=0 / constrained_intra=0 / bframes=10 / b_pyramid=2 / b_adapt=2 / b_bias=0 / direct=3 / weightb=1 / open_gop=0 / weightp=2 / keyint=240 / keyint_min=23 / scenecut=40 / intra_refresh=0 / rc=2pass / mbtree=0 / bitrate=2604 / ratetol=1.0 / qcomp=0.60 / qpmin=0 / qpmax=69 / qpstep=4 / cplxblur=20.0 / qblur=0.5 / ip_ratio=1.40 / pb_ratio=1.30 / aq=1:1.00
    Language : English

    Audio #1
    ID : 2
    Format : AC-3
    Format/Info : Audio Coding 3
    Mode extension : CM (complete main)
    Codec ID : A_AC3
    Duration : 1h 38mn
    Bit rate mode : Constant
    Bit rate : 192 Kbps
    Channel(s) : 2 channels
    Channel positions : Front: L R
    Sampling rate : 48.0 KHz
    Bit depth : 16 bits
    Compression mode : Lossy
    Stream size : 135 MiB (6%)
    Title : Любительский одноголосый
    Language : Russian

    Audio #2
    ID : 3
    Format : AC-3
    Format/Info : Audio Coding 3
    Mode extension : CM (complete main)
    Codec ID : A_AC3
    Duration : 1h 38mn
    Bit rate mode : Constant
    Bit rate : 192 Kbps
    Channel(s) : 2 channels
    Channel positions : Front: L R
    Sampling rate : 48.0 KHz
    Bit depth : 16 bits
    Compression mode : Lossy
    Stream size : 135 MiB (6%)
    Language : English

    Audio #3
    ID : 4
    Format : AC-3
    Format/Info : Audio Coding 3
    Mode extension : CM (complete main)
    Codec ID : A_AC3
    Duration : 1h 38mn
    Bit rate mode : Constant
    Bit rate : 192 Kbps
    Channel(s) : 2 channels
    Channel positions : Front: L R
    Sampling rate : 48.0 KHz
    Bit depth : 16 bits
    Compression mode : Lossy
    Stream size : 135 MiB (6%)
    Language : French

    Text
    ID : 5
    Format : UTF-8
    Codec ID : S_TEXT/UTF8
    Codec ID/Info : UTF-8 Plain Text
    Language : English

    Menu
    00:00:00.000 : :Chapter 01
    00:06:00.360 : :Chapter 02
    00:14:02.883 : :Chapter 03
    00:22:44.654 : :Chapter 04
    00:28:31.876 : :Chapter 05
    00:34:09.380 : :Chapter 06
    00:40:38.060 : :Chapter 07
    00:48:52.137 : :Chapter 08
    00:54:04.866 : :Chapter 09
    01:00:33.755 : :Chapter 10
    01:09:06.976 : :Chapter 11
    01:14:08.819 : :Chapter 12
    01:19:28.472 : :Chapter 13
    01:24:42.035 : :Chapter 14
    01:32:07.063 : :Chapter 15
    01:36:32.578 : :Chapter 16
    01:38:10.634 : :Chapter 17

    Скриншоты для ознакомления


    Релиз подготовил: |
    Размер скачиваемого торрента: 2.18 GB (2343889452 Bytes)

    Прощай, Эммануэль / Goodbye Emmanuelle (1977) BDRip-AVC от MediaClub | L1 скачать через торрент бесплатно
    загрузка...
    Рейтинг →
     (голосов: 1, оценка 4/5, голосовать можно 1 раз )

    Другие торренты по теме:

  • Прощай, Эммануэль / Goodbye, Emmanuelle (1977) BDRip by msltel | L1
  • Прощай, Эммануэль / Goodbye, Emmanuelle (1977) BDRip 720p by msltel | L1
  • Прощай, Эммануэль / Goodbye Emmanuelle (1977) BDRip 1080p by msltel | L1 скачать через торрент бесплатно


    • Комментарии (0):

      Информация

      Информация

        Посетители, находящиеся в группе Гости, не могут оставлять комментарии в данной новости.

        ↓ Меню



        ↓ Опрос

        А Вы добавили сайт в закладки?
        Да
        Не


        Top 10 за месяц (Фильмы)