.
Авторизация | Регистрация
Хочешь лучшие торренты? Добавь свой email!
Добавить
» » Сутенер / Pimp (2010) DVDRip от New-Team | P2 скачать торрент бесплатно




    Сутенер / Pimp (2010) DVDRip от New-Team | P2 скачать торрент бесплатно

    Опубликовал: Админ | Дата: 27-02-2015, 11:09 | Просмотров: 307


    Снималось в: Великобритания
    Категория жанра: триллер
    Создали в: 2010
    Время просмотра: 01:31:28

    Перевод текста: Профессиональный (двухголосый закадровый)
    Субтитры подготовлены: нет
    Оригинальная аудиодорожка: нет

    Главный режиссеры: Роберт Кавана / Robert Cavanah

    Актеры: Роберт Кавана, Дэнни Дайер, Билли Бойд, Джемма Чан, Хилари Хэмилтон, Robert Fucilla, Барбара Неделякова, Скарлет Джонсон, Уил Джонсон, Мартин Компстон...

    Сюжет: Пара документалистов решается снять фильм о жизни английского сутенера Вуди. У которого на данный момент накопилось много проблем. Почва уходит из под ног. Мало того, что его выселяют из квартиры, так и девченки не хотят работать. Они перестали его бояться он теряет уважение к себе. Его преследуют китайские кокуренты, телевизионщики мешаются под ногами, одна из его девочек пропадает. Но в грешной почве устремились к свету ростки любви при появлении новой проститутки. Новая задача, которую надо решить Вуди, так это - спасти её от этой темной жизни...



    Исходник: DVD5 R5
    Тип релиза: DVDRip
    Контейнер: AVI

    Информация о видео: 704x304 (2,35:1), 25 fps, XviD ~ 1001 kbps avg, 0.187 bit/pixel
    Информация о звуке: 48 kHz, MP3, 2 ch, 128.00 kbps

    Раздача от:
    MediaInfo

    Общее
    Полное имя : Sutener.2010.P2.DVDRip_Youtracker_by_AVPStudio.avi
    Формат : AVI
    Формат/Информация : Audio Video Interleave
    Размер файла : 745 Мбайт
    Продолжительность : 1 ч. 31 м.
    Общий поток : 1138 Кбит/сек
    Программа кодирования : VirtualDubMod 1.5.10.3 | www.virtualdub-fr.org || (build 2550/release)
    Библиотека кодирования : VirtualDubMod build 2550/release

    Видео
    Идентификатор : 0
    Формат : MPEG-4 Visual
    Профиль формата : Advanced Simple@L5
    Параметр BVOP формата : 1
    Параметр QPel формата : Нет
    Параметр GMC формата : Без точки перехода
    Параметр матрицы формата : Выборочная
    Идентификатор кодека : XVID
    Идентификатор кодека/Подсказка : XviD
    Продолжительность : 1 ч. 31 м.
    Битрейт : 1001 Кбит/сек
    Ширина : 704 пикселя
    Высота : 304 пикселя
    Соотношение сторон : 2,35:1
    Частота кадров : 25,000 кадров/сек
    Цветовое пространство : YUV
    Субдискретизация насыщенности : 4:2:0
    Битовая глубина : 8 бит
    Тип развёртки : Прогрессивная
    Метод сжатия : С потерями
    Бит/(Пиксели*Кадры) : 0.187
    Размер потока : 655 Мбайт (88%)
    Библиотека кодирования : XviD 65

    Аудио
    Идентификатор : 1
    Формат : MPEG Audio
    Версия формата : Version 1
    Профиль формата : Layer 3
    Идентификатор кодека : 55
    Идентификатор кодека/Подсказка : MP3
    Продолжительность : 1 ч. 31 м.
    Вид битрейта : Постоянный
    Битрейт : 128 Кбит/сек
    Каналы : 2 канала
    Частота : 48,0 КГц
    Метод сжатия : С потерями
    Размер потока : 83,7 Мбайт (11%)
    Выравнивание : Соединение по промежуткам
    Продолжительность промежутка : 40 мс. (1,00 видеокадр)
    Время предзагрузки промежутка : 504 мс

    Скриншоты для ознакомления



    Залил: AVPStudio
    Размер скачиваемого торрента: 744.79 MB (780969984 Bytes)

    Сутенер / Pimp (2010) DVDRip от New-Team | P2 торрент скачать бесплатно
    загрузка...
    Рейтинг →
     (голосов: 1, оценка 3/5, голосовать можно 1 раз )

    Другие торренты по теме:

  • Сутенер / Le mac (2010) BDRip от Rulya74
  • Сутенер / Le Mac (2009) BDRip от 0ptimus | D, P
  • Американский сутенер / American Pimp (1999) SATRip | P2


    • Комментарии (0):

      Информация

      Информация

        Посетители, находящиеся в группе Гости, не могут оставлять комментарии в данной новости.

        ↓ Меню



        ↓ Опрос

        А Вы добавили сайт в закладки?
        Да
        Не


        Top 10 за месяц (Фильмы)