.
Авторизация | Регистрация
Хочешь лучшие торренты? Добавь свой email!
Добавить
» » Невезучие / La chevre (1981) HDTVRip от New-Team скачать через торрент бесплатно




    Невезучие / La chevre (1981) HDTVRip от New-Team скачать через торрент бесплатно

    Опубликовал: Админ | Дата: 27-02-2015, 11:09 | Просмотров: 372

    Им наконец повезло!


    Снималось в: Франция, Мексика, Мальта
    Создали в: Conacite Uno, Fideline Films, Gaumont International
    Категория жанра: комедия, криминал, приключения
    Создали в: 1981
    Время просмотра: 01:29:47

    Перевод текста: Профессиональный (дублированный) (Советский дубляж) Профессиональный (многоголосый закадровый)
    Оригинальная аудиодорожка: французский
    Субтитры подготовлены: нет

    Главный режиссер: Франсис Вебер / Francis Veber

    Актеры:
    Пьер Ришар, Жерар Депардье, Педро Армендарис-Младший, Коринн Шарби, Маритца Оливарес, Андре Валарди, Хорхе Люк, Серджо Кальдерон, Мишель Робен...

    Сюжет:
    Существует тип людей, страдающих хроническим невезением. Они опаздывают на поезда, проливают красное вино на белую одежду, на них падают кирпичи. Единственная дочь миллионера Мари, как раз из таких. Не повезло ей в очередной раз — пропала где-то в Латинской Америке.
    Папаша поручает поиски первоклассному сыщику, который, в свою очередь, решает пойти нетрадиционным путем. Он находит такого же невезучего человека. Расчет прост — один невезучий должен вывести на другого…




    Исходник: HDTV 720p
    Тип релиза: HDTVRip
    Контейнер: AVI

    Информация о видео: 720x432 (1,667:1), 25 fps, XviD ~ 1480 kbps avg, 0.190 bit/pixel
    Информация о звуке: 48 kHz, Dolby Digital AC3 2.0, 192 kbps DUB (Советский дубляж)
    Информация о звуке: 48 kHz, Dolby Digital AC3 2.0, 192 kbps MVO (Позитив - Мультимедиа)
    Информация о звуке: 48 kHz, Dolby Digital AC3 5.1, 448 kbps Original (Французский)

    Раздача от:
    MediaInfo

    Общее
    Полное имя : Nevezuchie.1981.HDTVRip_New-team_by_AVP_Studio.avi
    Формат : AVI
    Формат/Информация : Audio Video Interleave
    Размер файла : 1,46 Гбайт
    Продолжительность : 1 ч. 29 м.
    Общий поток : 2331 Кбит/сек
    Программа кодирования : VirtualDubModRus 1.5.10.2 (build 2542/release)
    Библиотека кодирования : VirtualDubMod build 2542/release

    Видео
    Идентификатор : 0
    Формат : MPEG-4 Visual
    Профиль формата : Advanced Simple@L5
    Параметр BVOP формата : 1
    Параметр QPel формата : Нет
    Параметр GMC формата : Без точки перехода
    Параметр матрицы формата : Выборочная
    Идентификатор кодека : XVID
    Идентификатор кодека/Подсказка : XviD
    Продолжительность : 1 ч. 29 м.
    Битрейт : 1480 Кбит/сек
    Ширина : 720 пикселей
    Высота : 432 пикселя
    Соотношение сторон : 1,667
    Частота кадров : 25,000 кадров/сек
    Цветовое пространство : YUV
    Субдискретизация насыщенности : 4:2:0
    Битовая глубина : 8 бит
    Тип развёртки : Прогрессивная
    Метод сжатия : С потерями
    Бит/(Пиксели*Кадры) : 0.190
    Размер потока : 950 Мбайт (63%)
    Библиотека кодирования : XviD 73

    Аудио #1
    Идентификатор : 1
    Формат : AC-3
    Формат/Информация : Audio Coding 3
    Расширение режима : CM (complete main)
    Идентификатор кодека : 2000
    Продолжительность : 1 ч. 29 м.
    Вид битрейта : Постоянный
    Битрейт : 192 Кбит/сек
    Каналы : 2 канала
    Расположение каналов : Front: L R
    Частота : 48,0 КГц
    Битовая глубина : 16 бит
    Метод сжатия : С потерями
    Размер потока : 123 Мбайт (8%)
    Выравнивание : Разделение по промежуткам
    Продолжительность промежутка : 40 мс. (1,00 видеокадр)
    Время предзагрузки промежутка : 500 мс.

    Аудио #2
    Идентификатор : 2
    Формат : AC-3
    Формат/Информация : Audio Coding 3
    Расширение режима : CM (complete main)
    Идентификатор кодека : 2000
    Продолжительность : 1 ч. 29 м.
    Вид битрейта : Постоянный
    Битрейт : 192 Кбит/сек
    Каналы : 2 канала
    Расположение каналов : Front: L R
    Частота : 48,0 КГц
    Битовая глубина : 16 бит
    Метод сжатия : С потерями
    Размер потока : 123 Мбайт (8%)
    Выравнивание : Разделение по промежуткам
    Продолжительность промежутка : 40 мс. (1,00 видеокадр)
    Время предзагрузки промежутка : 500 мс.

    Аудио #3
    Идентификатор : 3
    Формат : AC-3
    Формат/Информация : Audio Coding 3
    Расширение режима : CM (complete main)
    Идентификатор кодека : 2000
    Продолжительность : 1 ч. 29 м.
    Вид битрейта : Постоянный
    Битрейт : 448 Кбит/сек
    Каналы : 2 канала
    Расположение каналов : Front: L R
    Частота : 48,0 КГц
    Битовая глубина : 16 бит
    Метод сжатия : С потерями
    Размер потока : 288 Мбайт (19%)
    Выравнивание : Разделение по промежуткам
    Продолжительность промежутка : 40 мс. (1,00 видеокадр)
    Время предзагрузки промежутка : 500 мс

    Скриншоты для ознакомления



    Это любопытно

    Рабочим названием фильма было Руби и Квентин
    У Франсиса Вебера есть фильм 1981 года, название которого перевели на русский язык тоже как Невезучие. В нём Жерар Депардье снимается в дуэте с Пьером Ришаром, но, наоборот, в роли ведущего, лидера в паре, а не как здесь, в комической роли ведомого.

    Залил: AVPStudio
    Размер скачиваемого торрента: 1.46 GB (1569732608 Bytes)

    Невезучие / La chevre (1981) HDTVRip от New-Team скачать через торрент бесплатно
    загрузка...
    Рейтинг →
     (голосов: 1, оценка 4/5, голосовать можно 1 раз )

    Другие торренты по теме:

  • Невезучие / La Chevre (1981) HDTVRip 720p
  • Невезучие / La Chevre (1981) HDTVRip от MediaClub | КПК
  • Невезучие / La chevre (1981) HDTVRip-AVC от New-Team скачать через торрент бесплатно
  • Невезучие / Tais-toi! (2003) BDRip-AVC от New-Team | D скачать через торрент бесплатно
  • Невезучие / Tais-Toi! скачать через торрент бесплатно
  • Невезучие / La chvre (1981) BDRip 720p от Neofilm скачать через торрент бесплатно
  • Невезучие / Pure Luck / 1991 / АП (Михалёв) / DVDRip
  • Невезучие / Tais-toi! / 2003 / ДБ / HDRip


    • Комментарии (0):

      Информация

      Информация

        Посетители, находящиеся в группе Гости, не могут оставлять комментарии в данной новости.

        ↓ Меню



        ↓ Опрос

        А Вы добавили сайт в закладки?
        Да
        Не


        Top 10 за месяц (Фильмы)