.
Авторизация | Регистрация
Хочешь лучшие торренты? Добавь свой email!
Добавить
» » В осаде / Suddenly (2013) BDRip от New-Team | D | Лицензия скачать через торрент бесплатно




    В осаде / Suddenly (2013) BDRip от New-Team | D | Лицензия скачать через торрент бесплатно

    Опубликовал: Админ | Дата: 27-02-2015, 11:09 | Просмотров: 268

    В осаде
    Suddenly




    Снималось в: Канада, США / Canadian Film or Video Production Tax Credit (CPTC), Nasser Entertainment Group, Odyss
    Категория жанра: Триллер
    Создали в: 2013
    Время просмотра: 01:30:09

    Перевод текста: Профессиональный (многоголосый закадровый) Лицензия

    Главный режиссер: Уве Болл / Uwe Boll

    Актеры: Рэй Лиотта, Эрин Карплак, Доминик Пёрселл, Дон Маккэй, Коул Кокер, Тайрон Лейтсо, Майкл Паре, Стив Бачич, Гари Чок, Брендан Флетчер

    Сюжет: Четверо убийц во главе с Бароном, представляются агентами секретной службы, чтобы реквизировать дом вдовы Эллен. Ее дом играет роль снайперской позиции в их плане покушения на президента во время его визита в маленький городок под названием Садденли. Убийцы провели всех местных полицейских, кроме одного — пьяницы Тодда, который служил вместе с покойным супругом Эллен…



    Релиз подготовил: | |
    Автор рипа: _Flash

    Качество фильма видео: BDRip
    Тип видео видео: AVI

    Информация о видео: 720x400, 23,976 fps, XviD build 73 ~1849 kbps avg, 0.268 bit/pixel
    Информация о звуке : 48 kHz, AC3 Dolby Digital, 3/2 (L,C,R,l,r) ch, 448.00 kbps| RUS


    Отчёт MediaInfo

    Общее
    Полное имя : D:Suddenly 2013.BDRip.By_Flash.avi
    Формат : AVI
    Формат/Информация : Audio Video Interleave
    Размер файла : 1,45 Гбайт
    Продолжительность : 1 ч. 30 м.
    Общий поток : 2306 Кбит/сек
    Программа кодирования : VirtualDubMod 1.5.10.3 | www.virtualdub-fr.org || (build 2550/release)
    Библиотека кодирования : VirtualDubMod build 2550/release

    Видео
    Идентификатор : 0
    Формат : MPEG-4 Visual
    Профиль формата : Advanced Simple@L5
    Параметр BVOP формата : 1
    Параметр QPel формата : Нет
    Параметр GMC формата : Без точки перехода
    Параметр матрицы формата : Выборочная
    Идентификатор кодека : XVID
    Идентификатор кодека/Подсказка : XviD
    Продолжительность : 1 ч. 30 м.
    Битрейт : 1849 Кбит/сек
    Ширина : 720 пикселей
    Высота : 400 пикселей
    Соотношение сторон : 16:9
    Частота кадров : 23,976 кадра/сек
    Цветовое пространство : YUV
    Субдискретизация насыщенности : 4:2:0
    Битовая глубина : 8 бит
    Тип развёртки : Прогрессивная
    Метод сжатия : С потерями
    Бит/(Пиксели*Кадры) : 0.268
    Размер потока : 1,16 Гбайт (80%)
    Библиотека кодирования : XviD 73

    Аудио
    Идентификатор : 1
    Формат : AC-3
    Формат/Информация : Audio Coding 3
    Расширение режима : CM (complete main)
    Параметр Endianness формата : Big
    Идентификатор кодека : 2000
    Продолжительность : 1 ч. 30 м.
    Вид битрейта : Постоянный
    Битрейт : 448 Кбит/сек
    Каналы : 6 каналов
    Расположение каналов : Front: L C R, Side: L R, LFE
    Частота : 48,0 КГц
    Битовая глубина : 16 бит
    Метод сжатия : С потерями
    Размер потока : 289 Мбайт (19%)
    Выравнивание : Разделение по промежуткам
    Продолжительность промежутка : 42 мс. (1,00 видеокадр)
    Время предзагрузки промежутка : 500 мс.


    Скриншоты для ознакомления



    Залил: Flash_
    Размер скачиваемого торрента: 1.45 GB (1559468032 Bytes)

    В осаде / Suddenly (2013) BDRip от New-Team | D | Лицензия скачать через торрент бесплатно
    загрузка...
    Рейтинг →
     (голосов: 1, оценка 5/5, голосовать можно 1 раз )

    Другие торренты по теме:

  • В осаде / Захват / Under Siege (1992) BDRip 1080p
  • Полицейская академия 6: Город в осаде / Police Academy 6: City Under Siege (1989) BDRip 1080р | D, P, A от Freeisland
  • Полицейская академия 6: Город в осаде / Police Academy 6: City Under Siege (1989) BDRip 720p от MediaClub | D, P, A
  • В осаде / Suddenly (2013) HDRip | Лицензия
  • В осаде / Suddenly (2013) DVD5 R5 от New-Team | P | лицензия
  • В осаде / Suddenly (2013) BDRip-AVC от HELLYWOOD | P | Лицензия скачать через торрент бесплатно
  • В осаде / Suddenly (2013) BDRemux 1080p | Лицензия скачать через торрент бесплатно
  • Полицейская академия 6: Город в осаде / Police Academy 6: City Under Siege (1989) BDRip от HQCLUB


    • Комментарии (0):

      Информация

      Информация

        Посетители, находящиеся в группе Гости, не могут оставлять комментарии в данной новости.

        ↓ Меню



        ↓ Опрос

        А Вы добавили сайт в закладки?
        Да
        Не


        Top 10 за месяц (Фильмы)