.
Авторизация | Регистрация
Хочешь лучшие торренты? Добавь свой email!
Добавить
» » Психо 3 / Psycho III (1986) Blu-Ray Remux 1080p от MediaClub | L1 скачать через торрент бесплатно




    Психо 3 / Psycho III (1986) Blu-Ray Remux 1080p от MediaClub | L1 скачать через торрент бесплатно

    Опубликовал: Админ | Дата: 27-02-2015, 11:09 | Просмотров: 248



    Детально о кино
    Русское название: Психо 3
    Русское название в мировом прокате: Psycho III
    Создали в: 1986
    Категория жанра: Ужасы, триллер, мистика
    Главный режиссер: Энтони Перкинс
    Актеры: Энтони Перкинс, Диана Скаруид, Джефф Фэйи, Роберта Максвелл, Хью Гиллин, Ли Гарлингтон, Роберт Алан Браун, Гари Байер, Джульет Камминс, Стив Гуевара, Донован Скотт

    Сюжет фильма:
    Несчастного Нормана снова посещает его покойная матушка. А в это время в мотель как назло нагрянули постояльцы. Перкинс настолько свыкся с ролью маменькиного сынка Нормана Бэйтса, что решил снимать теперь сам. Опять науськиваемый мамашей, он мочит молодежь, а в конце забивает лопатой и претендентку на место мамаши, оказавшуюся родственницей. Самое удивительное, что полиция никак не хочет каждый раз верить, что он на такое способен, а вечно подозревает других.



    Снималось в: США, Universal Pictures
    Время просмотра: 01:32:50
    Перевод текста: Любительский одноголосый

    Файл
    Кодек для видео: x264
    Качество фильма: Blu-Ray Remux (1080p)
    Информация о видео: MPEG-4 AVC, 30000 Кбит/с, 1920x1080, 23.976 кадр/с
    Информация о звуке: Русский (AC3, 2 ch, 192 Кбит/с), английский (DTS-HD MA, 6 ch, 3507 Кбит/с)
    Субтитры: Английские

    О релизе
    • За помощь в подготовке релиза спасибо kaspr

    MI
    Format : Matroska
    Format version : Version 4 / Version 2
    File size : 21.9 GiB
    Duration : 1h 32mn
    Overall bit rate : 33.7 Mbps
    Movie name : MediaClub
    Encoded date : UTC 2013-12-20 15:35:21
    Writing application : mkvmerge v6.1.0 (;Old Devil;) built on Mar 4 2013 09:10:42
    Writing library : libebml v1.3.0 libmatroska v1.4.0

    Video
    ID : 1
    Format : AVC
    Format/Info : Advanced Video Codec
    Format profile : High@L4.1
    Format settings, CABAC : Yes
    Format settings, ReFrames : 3 frames
    Format settings, GOP : M=3, N=12
    Codec ID : V_MPEG4/ISO/AVC
    Duration : 1h 32mn
    Bit rate mode : Variable
    Bit rate : 31.3 Mbps
    Maximum bit rate : 35.0 Mbps
    Width : 1 920 pixels
    Height : 1 080 pixels
    Display aspect ratio : 16:9
    Frame rate : 23.976 fps
    Standard : NTSC
    Color space : YUV
    Chroma subsampling : 4:2:0
    Bit depth : 8 bits
    Scan type : Progressive
    Bits/(Pixel*Frame) : 0.629
    Stream size : 20.3 GiB (93%)
    Color primaries : BT.709-5, BT.1361, IEC 61966-2-4, SMPTE RP177
    Transfer characteristics : BT.709-5, BT.1361
    Matrix coefficients : BT.709-5, BT.1361, IEC 61966-2-4 709, SMPTE RP177

    Audio #1
    ID : 2
    Format : AC-3
    Format/Info : Audio Coding 3
    Mode extension : CM (complete main)
    Codec ID : A_AC3
    Duration : 1h 32mn
    Bit rate mode : Constant
    Bit rate : 192 Kbps
    Channel(s) : 2 channels
    Channel positions : Front: L R
    Sampling rate : 48.0 KHz
    Bit depth : 16 bits
    Compression mode : Lossy
    Stream size : 127 MiB (1%)
    Title : Любительский одноголосый
    Language : Russian

    Audio #2
    ID : 3
    Format : DTS
    Format/Info : Digital Theater Systems
    Format profile : MA / Core
    Codec ID : A_DTS
    Duration : 1h 32mn
    Bit rate mode : Variable
    Bit rate : 1 561 Kbps / 1 510 Kbps
    Channel(s) : 6 channels
    Channel positions : Front: L C R, Side: L R, LFE
    Sampling rate : 48.0 KHz
    Bit depth : 24 bits
    Compression mode : Lossless / Lossy
    Language : English

    Text
    ID : 4
    Format : UTF-8
    Codec ID : S_TEXT/UTF8
    Codec ID/Info : UTF-8 Plain Text
    Language : English

    Menu
    00:00:00.000 : :Chapter 01
    00:09:18.558 : :Chapter 02
    00:16:55.639 : :Chapter 03
    00:25:28.151 : :Chapter 04
    00:32:33.952 : :Chapter 05
    00:39:30.993 : :Chapter 06
    00:46:30.788 : :Chapter 07
    00:53:01.178 : :Chapter 08
    01:00:27.248 : :Chapter 09
    01:06:41.998 : :Chapter 10
    01:14:11.447 : :Chapter 11
    01:22:37.577 : :Chapter 12

    Скриншоты для ознакомления


    Релиз подготовил: |
    Размер скачиваемого торрента: 21.85 GB (23463498291 Bytes)

    Психо 3 / Psycho III (1986) Blu-Ray Remux 1080p от MediaClub | L1 скачать через торрент бесплатно
    загрузка...
    Рейтинг →
     (голосов: 1, оценка 3/5, голосовать можно 1 раз )

    Другие торренты по теме:

  • Психо 3 / Psycho 3 (1986) DVDRip | А
  • Психо 3 / Psycho III (1986) BDRip 720p от MediaClub | L1 скачать через торрент бесплатно


    • Комментарии (0):

      Информация

      Информация

        Посетители, находящиеся в группе Гости, не могут оставлять комментарии в данной новости.

        ↓ Меню



        ↓ Опрос

        А Вы добавили сайт в закладки?
        Да
        Не


        Top 10 за месяц (Фильмы)