.
Авторизация | Регистрация
Хочешь лучшие торренты? Добавь свой email!
Добавить
» » 12 Рождественских желаний / 12 Wishes of Christmas (2011) DVDRip от New-Team | P | лицензия скачать через торрент бесплатно




    12 Рождественских желаний / 12 Wishes of Christmas (2011) DVDRip от New-Team | P | лицензия скачать через торрент бесплатно

    Опубликовал: Админ | Дата: 27-02-2015, 11:09 | Просмотров: 271



    Снималось в: США / ARO Entertainment, Barnholtz Entertainment

    Категория жанра: фэнтези, комедия
    Создали в: 2011
    Время просмотра: 01:25:05

    Перевод текста: Профессиональный (многоголосый закадровый)
    Субтитры подготовлены: нет
    Оригинальная аудиодорожка: нет

    Главный режиссер: Питер Салливан / Peter Sullivan

    Актеры: Элиза Донован, Гэбриэлль Картерис, Фред Уиллард, Дэвид О’Доннелл, Сара Томпсон, Майкл Гросс, Chonda Pierce, Мо Гаффни, Майкл Бергин, Линн Милано...

    Сюжет: Жизнь Лоры Линдси распадается на части — и это накануне Рождества! Когда терять уже нечего, отчаявшаяся женщина обращается к психологу Ноэль Найтингейл с просьбой о помощи. Но единственный совет, который она получает — это пойти домой и начать загадывать желания. Преодолев скепсис, Лора так и поступает.
    И вдруг все загаданное начинает сбываться! Привести свою жизнь в порядок — задача не из легких, и, похоже, исполнение желаний приносит порой больше вреда, чем пользы. Теперь Лоре нужно успеть вернуть все на свои места до наступления стремительно приближающегося праздника. И тут уже без рождественских чудес никак не обойтись.



    Качество фильма: DVDRip / DVD5 R5
    Тип видео: AVI

    Информация о видео: 688x384 (16:9), 25.000 fps, XVID ~1087 kbps avg, 0.165 bit/pixel
    Информация о звуке: Русский 48 kHz, МР3, 2 ch, 128.00 kbps Constant

    Раздача от:
    MediaInfo

    Общее
    Полное имя : 12.Rojdesvenskih.jelaniy.2011.P.DVDRip.745MB_New-Team_by_avproh.avi
    Формат : AVI
    Формат/Информация : Audio Video Interleave
    Размер файла : 746 Мбайт
    Продолжительность : 1 ч. 25 м.
    Общий поток : 1226 Кбит/сек
    Программа кодирования : VirtualDubMod 1.5.10.3 | www.virtualdub-fr.org || (build 2550/release)
    Библиотека кодирования : VirtualDubMod build 2550/release

    Видео
    Идентификатор : 0
    Формат : MPEG-4 Visual
    Профиль формата : Advanced Simple@L5
    Параметр BVOP формата : 1
    Параметр QPel формата : Нет
    Параметр GMC формата : Без точки перехода
    Параметр матрицы формата : Выборочная
    Идентификатор кодека : XVID
    Идентификатор кодека/Подсказка : XviD
    Продолжительность : 1 ч. 25 м.
    Битрейт : 1088 Кбит/сек
    Ширина : 688 пикселей
    Высота : 384 пикселя
    Соотношение сторон : 16:9
    Частота кадров : 25,000 кадров/сек
    Цветовое пространство : YUV
    Субдискретизация насыщенности : 4:2:0
    Битовая глубина : 8 бит
    Тип развёртки : Прогрессивная
    Метод сжатия : С потерями
    Бит/(Пиксели*Кадры) : 0.165
    Размер потока : 662 Мбайт (89%)
    Библиотека кодирования : XviD 73

    Аудио
    Идентификатор : 1
    Формат : MPEG Audio
    Версия формата : Version 1
    Профиль формата : Layer 3
    Идентификатор кодека : 55
    Идентификатор кодека/Подсказка : MP3
    Продолжительность : 1 ч. 25 м.
    Вид битрейта : Постоянный
    Битрейт : 128 Кбит/сек
    Каналы : 2 канала
    Частота : 48,0 КГц
    Метод сжатия : С потерями
    Размер потока : 77,9 Мбайт (10%)
    Выравнивание : Соединение по промежуткам
    Продолжительность промежутка : 40 мс. (1,00 видеокадр)
    Время предзагрузки промежутка : 504 мс.

    Скриншоты для ознакомления:



    Залил: avproh
    Размер скачиваемого торрента: 746.13 MB (782368768 Bytes)

    12 Рождественских желаний / 12 Wishes of Christmas (2011) DVDRip от New-Team | P | лицензия скачать через торрент бесплатно
    загрузка...
    Рейтинг →
     (голосов: 1, оценка 5/5, голосовать можно 1 раз )

    Другие торренты по теме:

  • 12 рождественских свиданий / 12 Dates of Christmas (2011) HDTVRip | D
  • 12 Рождественских желаний / 12 Wishes of Christmas (2011) DVD5 R5 от New-Team | P | лицензия скачать через торрент бесплатно
  • 12 Рождественских желаний / 12 Wishes of Christmas (2011) DVDRip-AVC от New-Team | P | лицензия скачать через торрент бесплатно


    • Комментарии (0):

      Информация

      Информация

        Посетители, находящиеся в группе Гости, не могут оставлять комментарии в данной новости.

        ↓ Меню



        ↓ Опрос

        А Вы добавили сайт в закладки?
        Да
        Не


        Top 10 за месяц (Фильмы)